<?xml version="1.0" standalone="no"?>
<!DOCTYPE svg PUBLIC "-//W3C//DTD SVG 1.1//EN" "http://www.w3.org/Graphics/SVG/1.1/DTD/svg11.dtd" >
<svg xmlns="http://www.w3.org/2000/svg">
<metadata>
This is a custom SVG webfont generated by Font Squirrel.
Copyright   : Typeface  your company 2009 All Rights Reserved
Designer    : Tup Wanders
Foundry     : Free font  dont sell
</metadata>
<defs>
<font id="webfontOq4F2zFb" horiz-adv-x="1013" >
<font-face units-per-em="2048" ascent="1638" descent="-410" />
<missing-glyph horiz-adv-x="387" />
<glyph unicode=" "  horiz-adv-x="387" />
<glyph unicode="&#x09;" horiz-adv-x="387" />
<glyph unicode="&#xa0;" horiz-adv-x="387" />
<glyph unicode="!" horiz-adv-x="415" d="M10 391v1043h289v-1043h-289zM12 141q0 -59 43 -102q41 -41 101 -41q61 0 102 41t41 102q0 59 -41 101q-43 43 -102 43q-57 0 -100.5 -43.5t-43.5 -100.5z" />
<glyph unicode="&#x22;" horiz-adv-x="704" d="M12 1290q0 -49 31 -90q27 -35 82 -49q-39 -80 -113 -123q39 0 76 12q78 23 133 80.5t74 132.5q4 12 4 37q0 59 -43 103q-41 41 -100 41q-61 0 -102.5 -41.5t-41.5 -102.5zM352 1290q0 -47 33 -90q29 -37 80 -49q-39 -80 -113 -123q39 0 76 12q78 23 133 80.5t74 132.5 q4 12 4 37q0 61 -41 102.5t-102.5 41.5t-102.5 -41.5t-41 -102.5z" />
<glyph unicode="#" horiz-adv-x="1335" d="M117 471l30 98h271l86 291h-295l29 96h294l142 478h92l-141 -478h241l144 478h92l-141 -478h258l-29 -96h-258l-84 -291h278l-28 -98h-281l-139 -471h-92l139 471h-242l-141 -471h-92l139 471h-272zM512 569h242l86 289h-244z" />
<glyph unicode="$" d="M113 1079q0 166 125 271q102 86 266 102v100h74v-102q76 -10 141 -35q9 -6 18 -6q27 0 41 45h49l105 -283h-49q-61 135 -168 181q-70 29 -137 39v-541q236 -90 321 -182q82 -88 82 -265q0 -197 -119 -301q-115 -100 -284 -118v-240h-74v238q-190 4 -266 36q-9 6 -19 7 q-27 0 -41 -45h-51v331h49q49 -180 154 -225q100 -43 174 -43v635q-215 68 -299 151q-92 92 -92 250zM219 1139q0 -98 55 -154q51 -55 230 -113v521q-121 -6 -199 -72q-86 -73 -86 -182zM578 45q127 18 210 96q86 80 86 219q0 115 -67 183q-63 61 -229 112v-610z" />
<glyph unicode="%" horiz-adv-x="1609" d="M4 1067q0 -147 107 -254q104 -104 253.5 -104t254 104.5t104.5 254t-105 255.5q-104 104 -253.5 104t-253.5 -104q-107 -111 -107 -256zM16 0l1201 1434h305l-1203 -1434h-303zM182 1067q0 76 53.5 129t129.5 53q78 0 129 -53q53 -53 53 -129t-53 -129q-51 -51 -129 -51 q-76 0 -129 51q-54 53 -54 129zM795 358q0 -147 106 -254q104 -104 254 -104t254 104.5t104 253.5q0 152 -104 254q-104 104 -253.5 104.5t-254.5 -104.5q-106 -104 -106 -254zM973 358.5q0 77.5 53 128.5q53 53 129 54q74 0 127 -54q55 -52 55 -129q0 -76 -55 -129 q-51 -53 -127 -53q-78 0 -129 53q-53 52 -53 129.5z" />
<glyph unicode="&#x26;" horiz-adv-x="1136" d="M0 358q0 -150 104.5 -254t253.5 -104h236q119 0 215 72q96 -72 213 -72h14v287h-12q-31 0 -51 20q-23 23 -23 51v72h90v287h-90v215h-284v-215h-308q-31 0 -51 20.5t-20 50.5v287q0 31 20.5 51.5t50.5 20.5q23 0 45 -17q2 0 4 -2l3 -2l2 -2q2 -2 2 -4t2 -3l2 -3l4 -4 q0 -2 4 -6q-2 -2 0 -4v-2q2 -2 2 -4v-4v-5l2 -2v-8v-14v-17h287v33q0 147 -104.5 252t-252.5 105h-14q-147 -6 -246 -109q-100 -102 -100 -250v-289q0 -117 72 -213q-72 -96 -72 -215zM291 362q0 31 20.5 51.5t50.5 20.5h310v-59v-13q0 -29 -23 -51q-20 -20 -51 -20h-236 q-31 0 -51 20t-20 51z" />
<glyph unicode="'" horiz-adv-x="344" />
<glyph unicode="(" horiz-adv-x="757" />
<glyph unicode=")" horiz-adv-x="757" />
<glyph unicode="*" horiz-adv-x="1024" d="M217 1333.5q0 16.5 6 34.5q12 35 37 53q18 12 35 13q10 0 16 -2q14 -4 74 -64q45 -47 113 -74q-3 71 -37 129q-37 63 -37 84q0 33 25 52q27 20 61 20q37 0 61.5 -18.5t24.5 -47.5q0 -20 -37 -88q-33 -61 -37 -131q68 27 115 76q53 57 68 62q8 2 20 2q16 0 37 -11 q25 -18 37 -53q6 -18 6 -35q0 -12 -4 -28q-8 -27 -37 -37q-4 -2 -21 -2q-29 0 -75 8q-18 4 -56 4q-47 0 -80 -10q41 -53 105 -82q66 -31 80 -47q12 -18 12 -39q0 -10 -2 -17q-10 -33 -39 -53q-29 -23 -59 -22v2q-31 0 -49 22q-14 20 -23 94q-10 68 -45 125q-37 -59 -47 -125 q-10 -76 -21 -90q-18 -23 -49 -26h-4q-31 0 -57 20q-31 20 -39 51q-4 12 -4 21q0 20 10 33q10 16 84 51q59 27 104 82q-33 10 -79 10q-37 0 -54 -4q-55 -12 -77 -12q-10 0 -15 2q-27 8 -41 39q-6 12 -6 28.5z" />
<glyph unicode="+" horiz-adv-x="835" d="M12 287h215v-219h289v219h215v286h-215v213h-289v-213h-215v-286z" />
<glyph unicode="," horiz-adv-x="419" d="M23 141q0 -52 30 -92q27 -35 82 -49q-37 -76 -112 -121q39 0 75 12q78 23 133 80q53 55 72 131q6 18 6 39q0 57 -43 100.5t-100 43.5q-59 0 -103 -43q-40 -42 -40 -101z" />
<glyph unicode="-" horiz-adv-x="823" d="M10 287v286h717v-286h-717z" />
<glyph unicode="." horiz-adv-x="413" d="M6 141q0 -61 41 -102t102.5 -41t102.5 41t41 102q0 59 -41 101q-43 43 -102.5 43t-102.5 -43q-41 -42 -41 -101z" />
<glyph unicode="/" horiz-adv-x="567" d="M12 -49l543 1483h80l-543 -1483h-80z" />
<glyph unicode="0" horiz-adv-x="819" d="M10 326q0 -145 107 -252q104 -104 251.5 -104.5t252.5 104.5q106 106 106 254v780q0 145 -106 252q-104 104 -252 104t-252 -104q-106 -106 -107 -250v-784zM297 328v778q0 29 20 49q23 23 51.5 23t51.5 -23q20 -20 20 -49v-776q0 -31 -20 -51q-23 -23 -51.5 -23 t-51.5 23q-20 20 -20 49z" />
<glyph unicode="1" horiz-adv-x="475" d="M14 1178h13q29 0 51 -23q20 -20 20 -49v-1106h287v1108q0 147 -104.5 251.5t-251.5 104.5h-15v-286z" />
<glyph unicode="2" horiz-adv-x="817" d="M2 0h719v287h-430v71q0 31 20.5 51.5t48.5 20.5h15q143 6 243 109q102 106 103 247v320q0 147 -107 254q-104 104 -254 104q-147 0 -251 -104q-106 -106 -107 -254v-145h289v145q0 29 20 49q23 23 49 23q29 0 52 -23q20 -20 20 -49v-318q0 -31 -20.5 -51t-49.5 -20h-14 q-143 -6 -244 -109q-102 -106 -102 -248v-360z" />
<glyph unicode="3" horiz-adv-x="817" d="M4 0h358q150 0 254.5 104.5t104.5 253.5q0 119 -72 215q72 96 72 213v320q0 147 -100 250q-98 102 -246 108h-15q-147 0 -251 -104t-105 -252v-8v-142h287v134v14v6q2 0 2 2v6v2l2 4v4l2 3q2 2 2 6v2l4 4v2l4 4l4 4l6 6q23 16 45 17q29 0 52 -23q20 -20 20 -49v-318 q0 -31 -20.5 -51t-51.5 -20h-172v-287h172q31 0 51.5 -20.5t20.5 -51t-20.5 -51t-51.5 -20.5h-358v-287z" />
<glyph unicode="4" horiz-adv-x="876" d="M6 289h430v-289h287v289h113v286h-113v859h-287l-430 -859v-286zM324 575l112 244v-244h-112z" />
<glyph unicode="5" horiz-adv-x="817" d="M10 330q0 -150 105 -254q106 -106 253.5 -106.5t254.5 106.5q104 104 104 254v317q0 147 -104.5 252t-251.5 105h-74v143h430v287h-717v-717h359q31 0 51 -20.5t20 -51.5v-315q0 -31 -20 -51q-23 -23 -51.5 -23t-51.5 23q-20 20 -20 51v149h-287v-149z" />
<glyph unicode="6" horiz-adv-x="813" d="M10 330q0 -147 106.5 -254t252.5 -107q147 0 254 107q104 104 104 254v317q0 147 -104.5 252t-251.5 105h-72v71q0 31 20.5 51.5t49.5 20.5h358v287h-358q-147 0 -252 -105q-106 -106 -107 -252v-747zM299 330v387h70q31 0 51 -20.5t20 -51.5v-315q0 -31 -20 -51 q-23 -23 -51 -23q-27 0 -50 23q-20 20 -20 51z" />
<glyph unicode="7" horiz-adv-x="761" d="M6 0h297l438 1434h-718v-287h335z" />
<glyph unicode="8" horiz-adv-x="813" d="M10 313q6 -141 111 -243q102 -100 248 -101q147 0 249.5 100.5t108.5 243.5v60q-6 115 -72 200q72 96 72 215v318q0 150 -104.5 254t-253.5 104q-147 0 -252 -104q-106 -106 -107 -254v-318q0 -115 74 -215q-68 -88 -74 -200v-60zM299 358q0 31 20.5 51.5t49.5 20.5h2 q29 0 49 -20.5t20 -51.5q0 -59 -20 -79q-23 -23 -51 -23q-27 0 -50 23q-20 20 -20 79zM299 788v318q0 29 20 49q23 23 50 23q29 0 51 -23q20 -20 20 -49v-318q0 -31 -20.5 -51t-48.5 -20h-2q-29 0 -49.5 20t-20.5 51z" />
<glyph unicode="9" horiz-adv-x="813" d="M6 0h361q147 0 251 104q106 106 107 252v750q0 147 -107 254q-104 104 -253 104q-147 0 -252 -104q-106 -106 -107 -254v-320q0 -145 107 -251q104 -104 252 -105h71v-72q0 -31 -20.5 -51t-48.5 -20h-361v-287zM295 788v318q0 29 20 49q23 23 50 23q29 0 51 -23 q20 -20 20 -49v-389h-69q-31 0 -51.5 20t-20.5 51z" />
<glyph unicode=":" horiz-adv-x="405" d="M6 141q0 -61 41 -102t102.5 -41t102.5 41t41 102q0 59 -41 101q-43 43 -102.5 43t-102.5 -43q-41 -42 -41 -101zM6 778q0 -59 41 -100t102.5 -41t102.5 41t41 100q0 61 -41 103q-43 43 -102.5 43t-102.5 -43q-41 -42 -41 -103z" />
<glyph unicode=";" horiz-adv-x="403" d="M12 141q0 -52 31 -92q27 -35 82 -49q-37 -76 -113 -121q39 0 76 12q78 23 133 80q55 59 74 131q4 12 4 39q0 57 -43 100.5t-100 43.5q-59 0 -103 -43q-41 -42 -41 -101zM12 778q0 -59 41 -100t103 -41q59 0 100 41q43 43 43 100q0 59 -43 102.5t-100 43.5q-59 0 -103 -43 q-41 -42 -41 -103z" />
<glyph unicode="&#x37e;" horiz-adv-x="403" d="M12 141q0 -52 31 -92q27 -35 82 -49q-37 -76 -113 -121q39 0 76 12q78 23 133 80q55 59 74 131q4 12 4 39q0 57 -43 100.5t-100 43.5q-59 0 -103 -43q-41 -42 -41 -101zM12 778q0 -59 41 -100t103 -41q59 0 100 41q43 43 43 100q0 59 -43 102.5t-100 43.5q-59 0 -103 -43 q-41 -42 -41 -103z" />
<glyph unicode="&#x3c;" />
<glyph unicode="=" horiz-adv-x="831" d="M10 66v286h717v-286h-717zM10 475v289h717v-289h-717z" />
<glyph unicode="&#x3e;" />
<glyph unicode="?" horiz-adv-x="747" d="M4 958h289v146v8v2l2 4v4v4l2 2l2 5q0 4 2 6q0 4 2 6h2q0 2 2 4l2 2l4 4l4 4q23 16 48 17q31 0 51 -20.5t20 -51.5v-221q0 -29 -20 -49q-23 -23 -51 -23h-146v-420h289v164q100 45 156 129q59 86 59 199v221q0 147 -100 250q-98 102 -246 108v2l-15 -2q-147 0 -251 -104 q-106 -106 -107 -252v-148zM221 141q0 -59 43 -102q41 -41 103 -41q59 0 100 41q43 43 43 102q0 57 -43 100.5t-100 43.5q-59 0 -102.5 -43.5t-43.5 -100.5z" />
<glyph unicode="@" horiz-adv-x="2017" />
<glyph unicode="A" horiz-adv-x="813" d="M0 0h287v287h143v-287h287v1106q0 150 -104.5 254t-254 104t-254 -104.5t-104.5 -253.5v-1106zM287 573v533q0 29 20 49q23 23 51.5 23t51.5 -23q20 -20 20 -49v-533h-143z" />
<glyph unicode="B" horiz-adv-x="813" d="M0 0h360q145 0 250 104.5t107 249.5v8q-4 119 -72 211q68 90 72 211v9v284q0 145 -107 252q-104 104 -252 105h-358v-1434zM287 287v143h71q31 0 51.5 -20.5t20.5 -51t-20.5 -51t-51.5 -20.5h-71zM287 717v430h71h2q29 0 49.5 -20.5t20.5 -51.5v-287q0 -31 -20.5 -51 t-51.5 -20h-71z" />
<glyph unicode="C" horiz-adv-x="794" d="M0 326q0 -145 106 -252q104 -104 252 -104.5t252 104.5q106 106 107 254v143h-287v-141q0 -31 -20 -51q-23 -23 -51.5 -23t-51.5 23q-20 20 -20 51v776q0 29 20 49q23 23 51.5 23t51.5 -23q20 -20 20 -49v-143h287v145q0 145 -107 252q-104 104 -251.5 104t-252.5 -104 q-106 -106 -106 -250v-784z" />
<glyph unicode="D" horiz-adv-x="813" d="M0 0h360q147 0 252 104q104 104 105 252v721q0 147 -105 252q-104 104 -252 105h-360v-1434zM287 287v860h71q31 0 51.5 -20.5t20.5 -51.5v-717q0 -31 -20.5 -51t-51.5 -20h-71z" />
<glyph unicode="E" horiz-adv-x="720" d="M0 0h633v287h-344v143h286v287h-286v430h344v287h-633v-1434z" />
<glyph unicode="F" horiz-adv-x="710" d="M2 0h289v430h287v287h-287v430h344v287h-633v-1434z" />
<glyph unicode="G" horiz-adv-x="817" d="M4 338q0 -150 104.5 -254t251.5 -104h17l344 16v700h-354v-286h67v-144h-72q-31 0 -51 20.5t-20 51.5v768v6q2 0 2 2v6v2l2 4v4l2 3l2 6v2l4 4q0 2 2 3l2 3l4 4l6 6q23 16 45 17q29 0 52 -23q20 -20 20 -49v-148h287v148q0 147 -100.5 249.5t-243.5 108.5h-17 q-147 0 -251.5 -104.5t-104.5 -251.5v-770z" />
<glyph unicode="H" horiz-adv-x="817" d="M-2 0h287v279h143v-279h287v1434h-287v-869h-143v869h-287v-1434z" />
<glyph unicode="I" horiz-adv-x="387" d="M-2 0v1434h287v-1434h-287z" />
<glyph unicode="J" horiz-adv-x="397" d="M-80 -78v-287h14q147 0 252 105q106 106 107 252v1442h-289v-1440q0 -31 -20.5 -51.5t-51.5 -20.5h-12z" />
<glyph unicode="K" horiz-adv-x="854" d="M0 0h287v430h61q31 0 53 -20q27 -23 29 -52l2 -14l49 -344h287l-49 352l-2 6q-18 131 -113 228q78 92 92 200l92 648h-286l-92 -646q-4 -31 -27 -51t-55 -20h-41v717h-287v-1434z" />
<glyph unicode="L" horiz-adv-x="698" d="M6 0h633v287h-344v1147h-289v-1434z" />
<glyph unicode="M" horiz-adv-x="1251" d="M6 0h287v1106v6v2l2 4v4l2 4v4l2 3q0 4 2 6q0 4 2 6h2q0 4 2 6h2l4 4l4 4q23 18 48 19q29 0 51 -23q20 -20 20 -49v-1106h287v1106q0 29 20 49q23 23 52 23q27 0 49 -23q20 -20 20 -49v-1106h287v1106q0 147 -104 252q-104 104 -252 104q-119 0 -215 -71q-90 68 -203 71 h-15q-147 0 -251 -104t-105 -252v-1106z" />
<glyph unicode="N" horiz-adv-x="817" d="M8 0h287v842l143 -336v-506h287v1434h-287v-344l-143 335v9h-287v-1434z" />
<glyph unicode="O" horiz-adv-x="813" d="M12 326q0 -143 107 -250q104 -104 251.5 -104.5t252 104t104.5 252.5v780q0 147 -104 252q-102 102 -252 102t-252 -102q-106 -106 -107 -252v-782zM299 330v776q0 29 20 49q23 23 51.5 23t51.5 -23q20 -20 20 -49v-776q0 -31 -20 -51q-23 -23 -51.5 -23t-51.5 23 q-20 20 -20 51z" />
<glyph unicode="P" horiz-adv-x="804" d="M10 0h287v430h72q147 0 251.5 104.5t104.5 251.5v289q0 147 -104 252q-106 106 -252 107h-359v-1434zM297 717v430h72q31 0 51 -20.5t20 -51.5v-287q0 -31 -20.5 -51t-50.5 -20h-72z" />
<glyph unicode="Q" horiz-adv-x="811" d="M2 326q0 -106 64 -199q63 -90 155 -127q10 -145 113 -242q104 -98 244 -98h16v287h-14q-27 0 -45.5 16.5t-24.5 38.5q90 43 149 129q59 90 60 197v780q0 147 -105 252q-102 102 -254 102q-150 0 -251 -102q-106 -106 -107 -252v-782zM289 330v776q0 29 20 49 q23 23 51.5 23t51.5 -23q20 -20 20 -49v-776q0 -31 -20 -51q-23 -23 -51.5 -23t-51.5 23q-20 20 -20 51z" />
<glyph unicode="R" horiz-adv-x="811" d="M4 0h287v430h59q31 0 53.5 -20.5t28.5 -51.5l2 -14l49 -344h285l-47 352l-2 8q-14 104 -86 195q88 104 88 231v289q0 147 -105 252q-106 106 -251 107h-361v-1434zM291 717v430h71q29 0 52 -23q20 -20 20 -49v-287q0 -31 -20.5 -51t-51.5 -20h-71z" />
<glyph unicode="S" horiz-adv-x="798" d="M8 0h359q150 0 254 104.5t104 253.5q0 145 -100 248q-101 104 -246 111h-12q-31 0 -51.5 20.5t-20.5 50.5v318v6v2l2 4v4l2 4v4v3q0 2 4 6q0 4 2 6h2q0 4 2 6h2l4 4l2 2q2 2 5 2q20 16 45 17q31 0 51 -20.5t20 -49.5v-148h287v148q0 145 -100 248q-98 102 -246 108h-14 q-147 0 -252 -104q-104 -104 -105 -252v-320q0 -145 100.5 -247.5t243.5 -108.5h15q31 0 51 -20.5t20 -51t-20.5 -51t-50.5 -20.5h-359v-287z" />
<glyph unicode="T" horiz-adv-x="722" d="M-23 1147h213v-1147h285v1147h217v287h-715v-287z" />
<glyph unicode="U" horiz-adv-x="819" d="M6 328q0 -147 105 -252q106 -106 253.5 -106.5t253.5 106.5q104 104 105 252v1106h-287v-1106q0 -29 -20 -49q-23 -23 -51.5 -23t-51.5 23q-20 20 -20 49v1106h-287v-1106z" />
<glyph unicode="V" horiz-adv-x="937" d="M0 1434l274 -1434h334l279 1434h-312l-124 -945l-164 945h-287z" />
<glyph unicode="W" horiz-adv-x="1255" d="M8 328q0 -145 106.5 -252t252.5 -107q115 0 215 74q92 -72 202 -74h15q145 0 252 107q104 104 104 252v1106h-287v-1106v-6v-5l-2 -4v-2v-4l-2 -4l-2 -4q0 -2 -2 -4q0 -2 -4 -6q0 -2 -1 -3q1 -3 -1 -3q-2 -2 -2 0l-4 -4l-2 -3q-2 -2 -2 -4q-23 -16 -47 -16q-29 0 -52 23 q-20 20 -20 49v1106h-287v-1106q0 -29 -20 -49q-23 -23 -51 -23q-27 0 -50 23q-20 20 -20 49v1106h-289v-1106z" />
<glyph unicode="X" horiz-adv-x="956" d="M8 1434l90 -648q15 -111 92 -202q-92 -94 -110 -224l-2 -8l-49 -352h286l47 344l3 14q2 29 28 52q23 20 53 20h5q31 0 53 -20q27 -23 28 -52l3 -14l47 -344h286l-49 352l-2 8q-18 129 -110 224q77 92 92 202l90 648h-287l-90 -646q-8 -55 -63 -69q-55 14 -64 69l-90 646 h-287z" />
<glyph unicode="Y" horiz-adv-x="811" d="M12 788q0 -109 62 -200q57 -88 157 -129v-459h285v461q94 43 154 131q59 90 59 196v646h-287v-646q0 -31 -20.5 -51t-50.5 -20q-29 0 -49 20q-23 23 -23 51v646h-287v-646z" />
<glyph unicode="Z" horiz-adv-x="792" d="M6 1147h354l-350 -1147h717v287h-342l350 1147h-729v-287z" />
<glyph unicode="[" horiz-adv-x="757" />
<glyph unicode="\" horiz-adv-x="567" />
<glyph unicode="]" horiz-adv-x="757" />
<glyph unicode="^" />
<glyph unicode="_" horiz-adv-x="1024" />
<glyph unicode="`" horiz-adv-x="1024" />
<glyph unicode="a" horiz-adv-x="813" d="M0 0h287v287h143v-287h287v905q0 150 -104.5 254.5t-254 104.5t-254 -104.5t-104.5 -254.5v-905zM287 573v332q0 31 20.5 51.5t51 20.5t51 -20.5t20.5 -51.5v-332h-143z" />
<glyph unicode="b" horiz-adv-x="813" d="M0 0h360q145 0 250 104.5t107 249.5v8q-4 119 -72 211q68 90 72 211v9v86q0 145 -107 251q-104 104 -252 105h-358v-1235zM287 287v143h71q31 0 51.5 -20.5t20.5 -51t-20.5 -51t-51.5 -20.5h-71zM287 717v229h71h2q29 0 49.5 -20.5t20.5 -48.5v-89q0 -31 -20.5 -51 t-51.5 -20h-71z" />
<glyph unicode="c" horiz-adv-x="794" d="M0 315q0 -145 106 -252q104 -104 252 -104t252 104q106 106 107 254v146h-287v-144q0 -31 -20.5 -51t-51 -20t-51 20.5t-20.5 50.5v596q0 31 20.5 51.5t51 20.5t51 -20.5t20.5 -51.5v-143h287v146q0 145 -107 251q-104 104 -251.5 104.5t-252.5 -104.5 q-106 -106 -106 -249v-605z" />
<glyph unicode="d" horiz-adv-x="813" d="M0 0h360q147 0 252 104q104 104 105 252v521q0 147 -105 251q-106 106 -252 107h-360v-1235zM287 287v659h71q31 0 51.5 -20.5t20.5 -48.5v-519q0 -31 -20.5 -51t-51.5 -20h-71z" />
<glyph unicode="e" horiz-adv-x="720" d="M0 0h633v287h-344v143h286v287h-286v229h344v289h-633v-1235z" />
<glyph unicode="f" horiz-adv-x="710" d="M2 0h289v430h287v287h-287v229h344v289h-633v-1235z" />
<glyph unicode="g" horiz-adv-x="817" d="M4 328q0 -150 104.5 -254.5t251.5 -104.5h17l344 17v671h-354v-286h67v-115h-72q-31 0 -51 20.5t-20 51.5v577v8q2 0 2 2v5v4l2 4v2l2 4l1 2l1 2v2l4 4q0 2 2 3l2 3l4 4v2q0 2 2 2t4 3q23 16 45 16q31 0 51.5 -20.5t20.5 -51.5v-145h287v145q0 147 -100.5 249.5 t-243.5 109.5h-17q-147 0 -251.5 -104.5t-104.5 -252.5v-579z" />
<glyph unicode="h" horiz-adv-x="817" d="M-2 0h287v279h143v-279h287v1235h-287v-670h-143v670h-287v-1235z" />
<glyph unicode="i" horiz-adv-x="387" d="M-2 0v1235h287v-1235h-287z" />
<glyph unicode="j" horiz-adv-x="397" d="M-80 -78v-287h14q147 0 252 105q106 106 107 252v1243h-289v-1241q0 -31 -20.5 -51.5t-51.5 -20.5h-12z" />
<glyph unicode="k" horiz-adv-x="854" d="M0 0h287v430h61q31 0 53 -20q27 -23 29 -52l2 -14l49 -344h287l-49 352l-2 6q-18 131 -113 228q78 92 92 200l92 449h-286l-92 -447q-4 -31 -27 -51t-55 -20h-41v518h-287v-1235z" />
<glyph unicode="l" horiz-adv-x="698" d="M6 0h633v287h-344v948h-289v-1235z" />
<glyph unicode="m" horiz-adv-x="1251" d="M6 0h287v905v6v4l2 5v2l2 4v4l2 4q0 2 2 4q0 4 2 6h2q0 4 2 6h2l4 4v2l4 5q18 16 48 16q31 0 51 -20.5t20 -51.5v-905h287v905q0 31 20.5 51.5t51.5 20.5q29 0 49 -20.5t20 -51.5v-905h287v905q0 147 -104 252q-106 106 -252 107q-119 0 -215 -72q-90 68 -203 72h-15 q-145 0 -251 -107q-104 -104 -105 -252v-905z" />
<glyph unicode="n" horiz-adv-x="817" d="M8 0h287v641l143 -336v-305h287v1233h-287v-342l-143 336v6h-287v-1233z" />
<glyph unicode="o" horiz-adv-x="813" d="M12 326q0 -143 107 -250q104 -104 251.5 -104.5t252 104t104.5 252.5v579q0 147 -104.5 252t-252 105t-251.5 -105q-106 -106 -107 -252v-581zM299 330v575q0 31 20.5 51.5t51 20.5t51 -20.5t20.5 -51.5v-575q0 -31 -20 -51q-23 -23 -51.5 -23t-51.5 23q-20 20 -20 51z " />
<glyph unicode="p" horiz-adv-x="804" d="M10 0h287v430h72q147 0 251.5 104.5t104.5 251.5v91q0 147 -104 251t-252 105h-359v-1233zM297 717v229h72q31 0 51 -20.5t20 -51.5v-86q0 -31 -20.5 -51t-50.5 -20h-72z" />
<glyph unicode="q" horiz-adv-x="811" d="M2 326q0 -106 64 -199q63 -90 155 -127q10 -145 113 -242q104 -98 244 -98h16v287h-14q-27 0 -45.5 16.5t-24.5 38.5q90 43 149 129q59 90 60 197v579q0 147 -104.5 252t-254.5 105q-147 0 -251 -105q-106 -106 -107 -252v-581zM289 330v575q0 31 20.5 51.5t51 20.5 t51 -20.5t20.5 -51.5v-575q0 -31 -20 -51q-23 -23 -51.5 -23t-51.5 23q-20 20 -20 51z" />
<glyph unicode="r" horiz-adv-x="811" d="M4 0h287v430h59q31 0 53.5 -20.5t28.5 -51.5l2 -14l49 -344h285l-47 352l-2 8q-14 104 -86 195q88 104 88 231v91q0 147 -104.5 251.5t-251.5 104.5h-361v-1233zM291 717v229h71q31 0 51.5 -20.5t20.5 -51.5v-86q0 -31 -20.5 -51t-51.5 -20h-71z" />
<glyph unicode="s" horiz-adv-x="798" d="M8 0h359q150 0 254 104.5t104 253.5q0 145 -100 248q-101 104 -246 111h-12q-31 0 -51.5 20.5t-20.5 50.5v117v6v4l2 5v2l2 4v4v4l4 4q0 4 2 6h2q0 4 2 6h2l4 4l7 7q20 16 45 16q29 0 51 -23q20 -20 20 -49v-147h287v147q0 145 -100 248q-101 104 -246 111h-14 q-145 0 -252 -107q-104 -104 -105 -252v-119q0 -145 100.5 -247.5t243.5 -108.5h15q31 0 51 -20.5t20 -51t-20.5 -51t-50.5 -20.5h-359v-287z" />
<glyph unicode="t" horiz-adv-x="722" d="M-23 946h213v-946h285v946h217v287h-715v-287z" />
<glyph unicode="u" horiz-adv-x="819" d="M6 328q0 -147 105 -252q106 -106 253.5 -106.5t253.5 106.5q104 104 105 252v905h-287v-905q0 -29 -20 -49q-23 -23 -51.5 -23t-51.5 23q-20 20 -20 49v905h-287v-905z" />
<glyph unicode="v" horiz-adv-x="937" d="M0 1233l274 -1233h334l279 1233h-312l-124 -744l-164 744h-287z" />
<glyph unicode="w" horiz-adv-x="1255" d="M8 328q0 -145 106.5 -252t252.5 -107q115 0 215 74q92 -72 202 -74h15q145 0 252 107q104 104 104 252v905h-287v-905v-6v-5l-2 -4v-2v-4l-2 -4l-2 -4q0 -2 -2 -4q0 -2 -4 -6q0 -2 -1 -3q1 -3 -1 -3q-2 -2 -2 0l-4 -4l-2 -3q-2 -2 -2 -4q-23 -16 -47 -16q-29 0 -52 23 q-20 20 -20 49v905h-287v-905q0 -29 -20 -49q-23 -23 -51 -23q-27 0 -50 23q-20 20 -20 49v905h-289v-905z" />
<glyph unicode="x" horiz-adv-x="956" d="M8 1233l90 -447q15 -111 92 -202q-92 -94 -110 -224l-2 -8l-49 -352h286l47 344l3 14q2 29 28 52q23 20 53 20h5q31 0 53 -20q27 -23 28 -52l3 -14l47 -344h286l-49 352l-2 8q-18 129 -110 224q77 92 92 202l90 447h-287l-90 -445q-8 -55 -63 -69q-55 14 -64 69l-90 445 h-287z" />
<glyph unicode="y" horiz-adv-x="811" d="M12 788q0 -109 62 -200q57 -88 157 -129v-459h285v461q94 43 154 131q59 90 59 196v445h-287v-445q0 -31 -20.5 -51t-50.5 -20q-29 0 -49 20q-23 23 -23 51v445h-287v-445z" />
<glyph unicode="z" horiz-adv-x="792" d="M6 946h316l-312 -946h717v287h-301l309 946h-729v-287z" />
<glyph unicode="{" />
<glyph unicode="|" d="M426 -418v1995h162v-1995h-162z" />
<glyph unicode="}" />
<glyph unicode="~" />
<glyph unicode="&#xa1;" horiz-adv-x="671" />
<glyph unicode="&#xa2;" horiz-adv-x="1138" />
<glyph unicode="&#xa3;" />
<glyph unicode="&#xa4;" />
<glyph unicode="&#xa5;" horiz-adv-x="1261" />
<glyph unicode="&#xa6;" d="M426 371h162v-789h-162v789zM426 788v791h162v-791h-162z" />
<glyph unicode="&#xa7;" />
<glyph unicode="&#xa8;" horiz-adv-x="1024" />
<glyph unicode="&#xa9;" horiz-adv-x="1673" />
<glyph unicode="&#xaa;" horiz-adv-x="647" />
<glyph unicode="&#xab;" horiz-adv-x="942" />
<glyph unicode="&#xac;" />
<glyph unicode="&#xad;" horiz-adv-x="823" d="M10 287v286h717v-286h-717z" />
<glyph unicode="&#xae;" horiz-adv-x="1673" />
<glyph unicode="&#xaf;" horiz-adv-x="669" />
<glyph unicode="&#xb0;" horiz-adv-x="673" />
<glyph unicode="&#xb1;" />
<glyph unicode="&#xb2;" />
<glyph unicode="&#xb3;" />
<glyph unicode="&#xb4;" horiz-adv-x="1024" />
<glyph unicode="&#xb5;" horiz-adv-x="1179" />
<glyph unicode="&#xb6;" horiz-adv-x="1024" />
<glyph unicode="&#xb7;" horiz-adv-x="507" />
<glyph unicode="&#x2219;" horiz-adv-x="507" />
<glyph unicode="&#xb8;" horiz-adv-x="1024" />
<glyph unicode="&#xb9;" />
<glyph unicode="&#xba;" horiz-adv-x="716" />
<glyph unicode="&#xbb;" horiz-adv-x="942" />
<glyph unicode="&#xbc;" horiz-adv-x="1705" />
<glyph unicode="&#xbd;" horiz-adv-x="1961" />
<glyph unicode="&#xbe;" horiz-adv-x="1705" />
<glyph unicode="&#xbf;" horiz-adv-x="747" />
<glyph unicode="&#xc0;" horiz-adv-x="1538" />
<glyph unicode="&#xc1;" horiz-adv-x="1538" />
<glyph unicode="&#xc2;" horiz-adv-x="1538" />
<glyph unicode="&#xc3;" horiz-adv-x="1538" />
<glyph unicode="&#xc4;" horiz-adv-x="1538" />
<glyph unicode="&#xc5;" horiz-adv-x="1538" />
<glyph unicode="&#xc6;" horiz-adv-x="2117" />
<glyph unicode="&#xc7;" horiz-adv-x="1398" />
<glyph unicode="&#xc8;" horiz-adv-x="1150" />
<glyph unicode="&#xc9;" horiz-adv-x="1150" />
<glyph unicode="&#xca;" horiz-adv-x="1150" />
<glyph unicode="&#xcb;" horiz-adv-x="1150" />
<glyph unicode="&#xcc;" horiz-adv-x="655" />
<glyph unicode="&#xcd;" horiz-adv-x="655" />
<glyph unicode="&#xce;" horiz-adv-x="655" />
<glyph unicode="&#xcf;" horiz-adv-x="655" />
<glyph unicode="&#xd0;" horiz-adv-x="1517" />
<glyph unicode="&#xd1;" horiz-adv-x="1552" />
<glyph unicode="&#xd2;" horiz-adv-x="1613" />
<glyph unicode="&#xd3;" horiz-adv-x="1613" />
<glyph unicode="&#xd4;" horiz-adv-x="1613" />
<glyph unicode="&#xd5;" horiz-adv-x="1613" />
<glyph unicode="&#xd6;" horiz-adv-x="1613" />
<glyph unicode="&#xd7;" horiz-adv-x="907" d="M31 322l221 -222l170 168l166 -166l223 222l-168 168l166 163l-223 224l-164 -166l-168 168l-221 -224l166 -165z" />
<glyph unicode="&#xd8;" horiz-adv-x="1613" />
<glyph unicode="&#xd9;" horiz-adv-x="1499" />
<glyph unicode="&#xda;" horiz-adv-x="1499" />
<glyph unicode="&#xdb;" horiz-adv-x="1499" />
<glyph unicode="&#xdc;" horiz-adv-x="1499" />
<glyph unicode="&#xdd;" horiz-adv-x="1232" />
<glyph unicode="&#xde;" horiz-adv-x="1118" />
<glyph unicode="&#xdf;" horiz-adv-x="1249" />
<glyph unicode="&#xe0;" horiz-adv-x="921" />
<glyph unicode="&#xe1;" horiz-adv-x="921" />
<glyph unicode="&#xe2;" horiz-adv-x="921" />
<glyph unicode="&#xe3;" horiz-adv-x="921" />
<glyph unicode="&#xe4;" horiz-adv-x="921" />
<glyph unicode="&#xe5;" horiz-adv-x="921" />
<glyph unicode="&#xe6;" horiz-adv-x="1452" />
<glyph unicode="&#xe7;" horiz-adv-x="903" />
<glyph unicode="&#xe8;" horiz-adv-x="907" />
<glyph unicode="&#xe9;" horiz-adv-x="907" />
<glyph unicode="&#xea;" horiz-adv-x="907" />
<glyph unicode="&#xeb;" horiz-adv-x="907" />
<glyph unicode="&#xec;" horiz-adv-x="512" />
<glyph unicode="&#xed;" horiz-adv-x="512" />
<glyph unicode="&#xee;" horiz-adv-x="512" />
<glyph unicode="&#xef;" horiz-adv-x="512" />
<glyph unicode="&#xf0;" horiz-adv-x="1138" />
<glyph unicode="&#xf1;" horiz-adv-x="1107" />
<glyph unicode="&#xf2;" horiz-adv-x="1009" />
<glyph unicode="&#xf3;" horiz-adv-x="1009" />
<glyph unicode="&#xf4;" horiz-adv-x="1009" />
<glyph unicode="&#xf5;" horiz-adv-x="1009" />
<glyph unicode="&#xf6;" horiz-adv-x="1009" />
<glyph unicode="&#xf7;" />
<glyph unicode="&#xf8;" horiz-adv-x="1009" />
<glyph unicode="&#xf9;" horiz-adv-x="1058" />
<glyph unicode="&#xfa;" horiz-adv-x="1058" />
<glyph unicode="&#xfb;" horiz-adv-x="1058" />
<glyph unicode="&#xfc;" horiz-adv-x="1058" />
<glyph unicode="&#xfd;" horiz-adv-x="866" />
<glyph unicode="&#xfe;" horiz-adv-x="1009" />
<glyph unicode="&#xff;" horiz-adv-x="866" />
<glyph unicode="&#x152;" horiz-adv-x="1536" d="M815 0h633v287h-344v143h286v287h-286v430h344v287h-633v-1434zM12 326q0 -143 107 -250q104 -104 251.5 -104.5t252 104t104.5 252.5v780q0 147 -104 252q-102 102 -252 102t-252 -102q-106 -106 -107 -252v-782zM299 330v776q0 29 20 49q23 23 51.5 23t51.5 -23 q20 -20 20 -49v-776q0 -31 -20 -51q-23 -23 -51.5 -23t-51.5 23q-20 20 -20 51z" />
<glyph unicode="&#x153;" horiz-adv-x="1536" d="M815 0h633v287h-344v143h286v287h-286v229h344v289h-633v-1235zM12 326q0 -143 107 -250q104 -104 251.5 -104.5t252 104t104.5 252.5v579q0 147 -104.5 252t-252 105t-251.5 -105q-106 -106 -107 -252v-581zM299 330v575q0 31 20.5 51.5t51 20.5t51 -20.5t20.5 -51.5 v-575q0 -31 -20 -51q-23 -23 -51.5 -23t-51.5 23q-20 20 -20 51z" />
<glyph unicode="&#x178;" horiz-adv-x="811" d="M12 788q0 -109 62 -200q57 -88 157 -129v-459h285v461q94 43 154 131q59 90 59 196v646h-287v-646q0 -31 -20.5 -51t-50.5 -20q-29 0 -49 20q-23 23 -23 51v646h-287v-646z" />
<glyph unicode="&#x2c6;" horiz-adv-x="1024" />
<glyph unicode="&#x2dc;" horiz-adv-x="1024" />
<glyph unicode="&#x2000;" horiz-adv-x="788" />
<glyph unicode="&#x2001;" horiz-adv-x="1576" />
<glyph unicode="&#x2002;" horiz-adv-x="788" />
<glyph unicode="&#x2003;" horiz-adv-x="1576" />
<glyph unicode="&#x2004;" horiz-adv-x="524" />
<glyph unicode="&#x2005;" horiz-adv-x="393" />
<glyph unicode="&#x2006;" horiz-adv-x="262" />
<glyph unicode="&#x2007;" horiz-adv-x="262" />
<glyph unicode="&#x2008;" horiz-adv-x="196" />
<glyph unicode="&#x2009;" horiz-adv-x="313" />
<glyph unicode="&#x200a;" horiz-adv-x="86" />
<glyph unicode="&#x2010;" horiz-adv-x="823" d="M10 287v286h717v-286h-717z" />
<glyph unicode="&#x2011;" horiz-adv-x="823" d="M10 287v286h717v-286h-717z" />
<glyph unicode="&#x2012;" horiz-adv-x="823" d="M10 287v286h717v-286h-717z" />
<glyph unicode="&#x2013;" horiz-adv-x="1107" />
<glyph unicode="&#x2014;" horiz-adv-x="2048" />
<glyph unicode="&#x2018;" horiz-adv-x="399" d="M10 1298q0 -59 41 -100q43 -43 102.5 -43t102.5 43q41 41 41 100q0 49 -33 93q-29 37 -80 49q41 80 113 121q-41 0 -78 -13q-76 -20 -131 -79.5t-74 -131.5q-4 -12 -4 -39z" />
<glyph unicode="&#x2019;" horiz-adv-x="403" d="M12 1290q0 -49 31 -90q27 -35 82 -49q-39 -80 -113 -123q39 0 76 12q78 23 133 80.5t74 132.5q4 12 4 37q0 59 -43 103q-41 41 -100 41q-61 0 -102.5 -41.5t-41.5 -102.5z" />
<glyph unicode="&#x201a;" horiz-adv-x="419" d="M23 141q0 -52 30 -92q27 -35 82 -49q-37 -76 -112 -121q39 0 75 12q78 23 133 80q53 55 72 131q6 18 6 39q0 57 -43 100.5t-100 43.5q-59 0 -103 -43q-40 -42 -40 -101z" />
<glyph unicode="&#x201c;" horiz-adv-x="733" d="M637 1301q0 49 -31 90q-27 35 -82 49q39 80 113 123q-39 0 -76 -12q-78 -23 -133 -80.5t-74 -132.5q-4 -12 -4 -37q0 -59 43 -103q41 -41 100 -41q61 0 102.5 41.5t41.5 102.5zM297 1301q0 47 -33 90q-29 37 -80 49q39 80 113 123q-39 0 -76 -12q-78 -23 -133 -80.5 t-74 -132.5q-4 -12 -4 -37q0 -61 41 -102.5t102.5 -41.5t102.5 41.5t41 102.5z" />
<glyph unicode="&#x201d;" horiz-adv-x="704" d="M12 1290q0 -49 31 -90q27 -35 82 -49q-39 -80 -113 -123q39 0 76 12q78 23 133 80.5t74 132.5q4 12 4 37q0 59 -43 103q-41 41 -100 41q-61 0 -102.5 -41.5t-41.5 -102.5zM352 1290q0 -47 33 -90q29 -37 80 -49q-39 -80 -113 -123q39 0 76 12q78 23 133 80.5t74 132.5 q4 12 4 37q0 61 -41 102.5t-102.5 41.5t-102.5 -41.5t-41 -102.5z" />
<glyph unicode="&#x201e;" horiz-adv-x="735" d="M23 141q0 -52 30 -92q27 -35 82 -49q-37 -76 -112 -121q39 0 75 12q78 23 133 80q53 55 72 131q6 18 6 39q0 57 -43 100.5t-100 43.5q-59 0 -103 -43q-40 -42 -40 -101zM352 141q0 -49 33 -92q29 -37 80 -49q-37 -76 -113 -121q39 0 76 12q78 23 133 80q55 59 74 131 q4 12 4 39q0 59 -41 101q-43 43 -102.5 43t-102.5 -43q-41 -42 -41 -101z" />
<glyph unicode="&#x2022;" horiz-adv-x="1024" d="M215 719q0 121 88 209q86 86 209 86q121 0 209 -88t88 -207q0 -123 -88 -211q-86 -86 -209 -86q-125 0 -211 86t-86 211z" />
<glyph unicode="&#x2026;" horiz-adv-x="1212" d="M6 141q0 -61 41 -102t102.5 -41t102.5 41t41 102q0 59 -41 101q-43 43 -102.5 43t-102.5 -43q-41 -42 -41 -101zM406 141q0 -59 43 -102q41 -41 102 -41q59 0 100 41t41 102q0 59 -41 101q-43 43 -100 43q-59 0 -102 -43.5t-43 -100.5zM807 141q0 -61 41 -102t102 -41 q59 0 101 41q43 43 43 102q0 57 -43 100.5t-101 43.5q-59 0 -102 -43q-41 -42 -41 -101z" />
<glyph unicode="&#x202f;" horiz-adv-x="313" />
<glyph unicode="&#x2039;" horiz-adv-x="630" />
<glyph unicode="&#x203a;" horiz-adv-x="630" />
<glyph unicode="&#x205f;" horiz-adv-x="393" />
<glyph unicode="&#x20ac;" horiz-adv-x="937" d="M0 573h100v-219q2 -145 106.5 -249.5t254.5 -104.5q147 0 251.5 104.5t104.5 251.5v146h-287v-144q0 -31 -20.5 -51t-48.5 -20q-31 0 -51 20q-23 23 -23 51v215h447v287h-447v215q0 29 23 51q20 20 51 21q29 0 49 -20.5t20 -51.5v-143h287v145q0 147 -104.5 252 t-251.5 105q-150 0 -254.5 -104.5t-106.5 -250.5v-219h-100v-287z" />
<glyph unicode="&#x2122;" horiz-adv-x="1495" />
<glyph unicode="&#xe000;" horiz-adv-x="1235" d="M0 1235h1235v-1235h-1235v1235z" />
<glyph unicode="&#xf001;" horiz-adv-x="1071" />
<glyph unicode="&#xfb01;" horiz-adv-x="1071" />
<glyph unicode="&#xf002;" horiz-adv-x="1079" />
<glyph unicode="&#xfb02;" horiz-adv-x="1079" />
<glyph unicode="&#xfb03;" horiz-adv-x="1812" d="M1421 0v1235h287v-1235h-287zM715 0h289v430h287v287h-287v229h344v289h-633v-1235zM2 0h289v430h287v287h-287v229h344v289h-633v-1235z" />
<glyph unicode="&#xfb04;" horiz-adv-x="2123" d="M1429 0h633v287h-344v948h-289v-1235zM715 0h289v430h287v287h-287v229h344v289h-633v-1235zM2 0h289v430h287v287h-287v229h344v289h-633v-1235z" />
</font>
</defs>
</svg>
