<?xml version="1.0" standalone="no"?>
<!DOCTYPE svg PUBLIC "-//W3C//DTD SVG 1.1//EN" "http://www.w3.org/Graphics/SVG/1.1/DTD/svg11.dtd" >
<svg xmlns="http://www.w3.org/2000/svg">
<metadata>
This is a custom SVG webfont generated by Font Squirrel.
Copyright   : c 1999 Nick Curtis All Rights Reserved Generated by Fontographer 352 
</metadata>
<defs>
<font id="webfontFSu0QXMh" horiz-adv-x="1024" >
<font-face units-per-em="2048" ascent="1638" descent="-410" />
<missing-glyph horiz-adv-x="500" />
<glyph unicode=" " />
<glyph unicode="!" horiz-adv-x="655" d="M31 1284h184v-940h-43zM94 78q0 51 34 92t87 66v-316q-53 27 -87 67t-34 91zM311 -102v362h8q4 0 9 2h8h8q102 0 176 -53t74 -131q0 -76 -74 -128t-176 -52h-8h-8h-9h-8zM311 344v940h316l-88 -940h-228zM360 -43l185 115l-185 112v-227zM360 426l185 111l-185 112v-223z M360 694l185 115l-185 113v-228zM360 954l185 115l-185 113v-228z" />
<glyph unicode="&#x22;" />
<glyph unicode="#" />
<glyph unicode="$" horiz-adv-x="1253" d="M57 987q0 68 37 127.5t119 93.5h2h3h1v-532l-14 14l-10 10q-51 45 -86 105.5t-46 124.5q-4 14 -5 28.5t-1 28.5zM100 -61v544q33 -18 63 -37l56 -34v-473h-119zM315 -61v426q45 -20 94.5 -31.5t108.5 -11.5q37 0 56.5 12t19.5 39q0 20 -37 55t-102 80l-74 51l-66 45v631 q37 8 80 13t90 7v123h369v-121h291v-499l-94 47t-66 26q-14 4 -27.5 6.5t-27.5 2.5q-35 0 -52.5 -10.5t-17.5 -28.5q0 -12 23.5 -37t64.5 -59q53 -45 95 -85t67 -73q37 -49 59.5 -115.5t26.5 -134.5v-11v-10q0 -82 -34 -156.5t-111 -115.5q-33 -16 -85.5 -31.5t-111.5 -23.5 v-137h-369v127h-170zM365 14l184 111l-184 113v-224zM365 664l184 112l-184 111v-223zM365 924l184 112l-184 111v-223z" />
<glyph unicode="%" />
<glyph unicode="&#x26;" horiz-adv-x="1605" d="M74 281q0 137 83 242.5t208 138.5q-49 49 -77 114.5t-28 141.5q0 78 31 147.5t82 118.5v-1284q-129 31 -214 137.5t-85 243.5zM469 -109v1358q37 16 76 25.5t82 9.5q152 0 259 -107.5t107 -258.5q0 -35 -8 -69t-18 -67q88 66 194.5 102t224.5 36l3 -1q2 -1 4 -1h2 q0 -2 2 -3h2v-432h-2h-2h-4h-5q-51 0 -99 -18.5t-85 -50.5l330 -490h-655l-93 133q-51 -74 -134 -119t-181 -47zM518 -51l184 110l-184 113v-223zM518 229l184 113l-184 111v-224zM518 500l184 114l-184 111v-225zM518 772l184 113l-184 110v-223zM518 1032l184 113 l-184 110v-223z" />
<glyph unicode="'" />
<glyph unicode="(" />
<glyph unicode=")" />
<glyph unicode="*" />
<glyph unicode="+" />
<glyph unicode="," />
<glyph unicode="-" />
<glyph unicode="." horiz-adv-x="655" d="M53 78q0 51 34 92t87 66v-316q-53 27 -87 67t-34 91zM270 -102v362h9q4 0 8 2h8h8q102 0 176 -53t74 -131q0 -76 -73.5 -128t-176.5 -52h-8h-8h-8h-9zM319 -43l185 115l-185 112v-227z" />
<glyph unicode="/" />
<glyph unicode="0" horiz-adv-x="1280" d="M57 594q0 119 29 225.5t80 194.5v-840q-51 90 -80 195.5t-29 224.5zM260 41v1104q6 6 13.5 12t13.5 12l12 11.5l12 11.5v-182l183 114l-152 93q66 49 141.5 76.5t157.5 27.5q240 0 411 -214t171 -513t-171 -511t-411 -212q-76 0 -146.5 22.5t-134.5 65.5l134 80l-183 113 v-156q-6 4 -12 9t-12 11t-13.5 12.5t-13.5 12.5zM311 207l183 115l-183 112v-227zM311 479l183 113l-183 110v-223zM311 750l183 114l-183 111v-225zM516 594q0 -117 37 -200t88 -83t87 83t36 200q0 119 -36 202t-87 83t-88 -83t-37 -202z" />
<glyph unicode="1" horiz-adv-x="770" d="M35 561v465q74 18 143.5 49t136.5 72v-1225h-114v774q-20 -31 -49 -57.5t-58 -44.5l-31 -19q-14 -8 -28 -14zM412 -78v1290l13 10q7 5 13 11l14 9q7 5 13 11v-190l178 115l-147 94h239v-1350h-323zM465 -20l178 114l-178 111v-225zM465 262l178 115l-178 110v-225z M465 535l178 110l-178 113v-223zM465 803l178 115l-178 112v-227z" />
<glyph unicode="2" horiz-adv-x="1099" d="M49 -78l299 590v-590h-299zM61 1147q70 51 141.5 86t145.5 55v-426q-47 -2 -103.5 -40t-121.5 -113zM444 -78v1383q10 2 19.5 3t19.5 1q10 2 20 2h19q178 0 321.5 -103.5t143.5 -298.5q0 -66 -25.5 -146.5t-72.5 -174.5l-53 -90l-125 -207q80 0 166 21.5t174 64.5 l-2 -455h-605zM498 -43l180 115l-180 112v-227zM498 240l180 114l-180 111v-225zM498 512l180 113l-180 110v-223zM498 782l180 115l-180 111v-226zM498 1042l180 115l-180 111v-226z" />
<glyph unicode="3" horiz-adv-x="1054" d="M47 877l2 395h215v-395h-217zM51 154q35 -8 72 -12.5t76 -4.5q16 0 32.5 1t32.5 3v-366h-27h-30h-13h-16zM164 485l100 217v-204h-11h-9q-23 -2 -43.5 -5.5t-36.5 -7.5zM360 166l9 4l8 4l8 4l8 4q39 23 62.5 65t25.5 87v5v5q0 35 -15 67.5t-50 53.5l-26 12q-13 6 -30 8 v787h644l-259 -547q129 -43 195 -134t66 -226q0 -143 -70 -258t-209 -195q-82 -47 -173 -79t-194 -46v379zM414 -74l180 113l-180 111v-224zM414 477l180 115l-180 113v-228zM414 752l180 110l-180 111v-221zM414 1012l180 110l-180 111v-221z" />
<glyph unicode="4" horiz-adv-x="1189" d="M53 219l137 1053h459l-151 -817h88v227l86 45v-805h-90v297h-529zM768 -78v858l266 144v-478h101v-233h-103v-291h-264zM821 -20l178 114l-178 111v-225zM821 262l178 115l-178 110v-225zM821 535l178 110l-178 113v-223z" />
<glyph unicode="5" horiz-adv-x="1097" d="M49 190q45 -14 87 -22t79 -12v-369zM51 492l125 780h39v-750q-45 0 -86 -8t-78 -22zM311 156q90 8 136.5 53t46.5 127q0 76 -55.5 119t-127.5 57v760h617v-342h-293l-57 -185h12q6 0 14 3h18h17q203 0 305.5 -94.5t102.5 -282.5q0 -147 -70 -262t-205 -197 q-100 -59 -214 -93t-247 -42v379zM360 76v-228l185 115zM360 543l185 114l-185 113v-227zM360 795l185 110l-185 113v-223zM360 1032l185 113l-185 110v-223z" />
<glyph unicode="6" horiz-adv-x="1208" d="M55 569q0 121 32 226.5t91 193.5v-856q-63 90 -93 202.5t-30 233.5zM272 23v1081q90 88 209 143.5t256 75.5l234 -405q-61 0 -117.5 -10.5t-108.5 -28.5q-57 -23 -100 -58t-70 -82q47 29 97.5 42.5t103.5 13.5q84 0 154.5 -33t122.5 -94q47 -57 72.5 -131t27.5 -160 q0 -109 -37 -200t-102 -157q-66 -63 -158 -98t-201 -35q-119 0 -215 36.5t-168 99.5zM324 45l182 113l-182 110v-223zM324 315l182 113l-182 113v-226zM324 586l182 114l-182 111v-225zM324 846l182 115l-182 110v-225zM602 358q0 -49 24.5 -84.5t59.5 -35.5t58.5 35.5 t23.5 84.5q0 53 -23.5 88t-58.5 35t-59.5 -35t-24.5 -88zM1151 377h2h-2z" />
<glyph unicode="7" horiz-adv-x="1081" d="M49 834l129 438h416l-238 -1350h-96l158 912h-369zM453 -78l241 1350h338l-307 -1350h-272zM510 -51l199 80l-162 143zM557 227l199 80l-158 144zM606 494l199 79l-162 144zM653 760l199 80l-158 143zM700 1018l195 80l-158 143z" />
<glyph unicode="8" horiz-adv-x="1212" d="M55 276q0 90 42 163t124 124v-590q-74 47 -120 122t-46 181zM109 881q0 90 29.5 165.5t82.5 133.5v-568q-55 59 -83.5 127t-28.5 142zM317 -74v1329q53 33 117 50.5t133 17.5q18 0 36 -1t36 -1q176 -16 324.5 -114.5t148.5 -303.5q0 -104 -37 -186t-108 -142 q96 -53 143 -130.5t47 -180.5q0 -178 -129 -267t-285 -112q-33 -6 -65.5 -8t-63.5 -2q-27 0 -55 2l-57 4q-47 6 -93.5 17.5t-91.5 27.5zM367 -61l182 110l-182 111v-221zM367 219l155 96q4 -53 30 -89t60 -36q35 0 60.5 42t25.5 99.5t-25.5 98.5t-60.5 41t-60.5 -35 t-29.5 -88l-155 94v-223zM367 489l182 115l-182 111v-226zM367 762l172 104q6 -41 26.5 -67.5t46.5 -26.5q31 0 52.5 40t21.5 95.5t-21.5 95t-52.5 39.5q-33 0 -55 -39.5t-22 -95.5v-8v-8v-4v-4l-168 102v-223zM367 1022l182 111l-182 112v-223z" />
<glyph unicode="9" horiz-adv-x="1208" d="M55 829l2 2zM57 831q-2 86 21.5 162t66.5 135v-577q-43 57 -65.5 127.5t-22.5 152.5zM242 281v8q59 0 114.5 11t106.5 30q57 23 100 57.5t70 79.5q-45 -27 -96.5 -40t-104.5 -13t-101 12t-89 39v762q61 45 140 70.5t171 25.5q293 0 446.5 -207t153.5 -479 q0 -305 -192.5 -508t-489.5 -242zM291 479l182 113l-182 110v-223zM291 750l160 98q0 -51 24.5 -87t56.5 -36q35 0 59.5 36t24.5 87t-24.5 86t-59.5 35q-29 0 -51 -25.5t-30 -64.5l-160 96v-225zM291 1010l182 114l-182 111v-225z" />
<glyph unicode=":" />
<glyph unicode=";" />
<glyph unicode="&#x3c;" />
<glyph unicode="=" />
<glyph unicode="&#x3e;" />
<glyph unicode="?" horiz-adv-x="997" d="M45 821v70q0 80 24.5 147.5t55.5 106.5q4 6 9 11l9 9q49 49 114 83t134 50v-383q-2 2 -6 3.5t-6 1.5q-4 2 -7 2h-7q-18 0 -35 -11.5t-27 -38.5v-51h-258zM244 465q0 25 6 48.5t18 47.5q12 25 30.5 48.5t43.5 47.5q14 14 27.5 29.5t21.5 30.5v-402q-74 20 -110.5 57.5 t-36.5 92.5zM285 78q0 47 29.5 87t76.5 64v-303q-47 27 -76.5 66t-29.5 86zM487 -100v358q12 2 23.5 3t21.5 1q104 0 177 -53t73 -131q0 -76 -72.5 -128t-177.5 -52h-21q-12 0 -24 2zM487 299v1014h12q5 0 11 2h9h11q164 0 292 -96.5t128 -307.5q0 -117 -74.5 -190.5 t-170.5 -120.5q-39 -20 -63 -37.5t-24 -30.5q0 -20 15.5 -30t42.5 -10l-70 -199q-33 0 -61 2zM541 -43l180 115l-180 112v-227zM541 643l180 111l-180 112v-223zM541 903l180 111l-180 112v-223z" />
<glyph unicode="@" />
<glyph unicode="A" horiz-adv-x="1726" d="M78 -78l448 1149l-123 301h441l583 -1450h-440l-55 137h-410l-47 -137h-397zM621 356h196l-112 271zM698 1090l207 -37l-80 207zM795 848l209 -37l-82 203zM897 596l213 -39l-90 207zM948 1372h113l586 -1450h-119zM995 346l213 -41l-86 211zM1104 82l211 -33l-84 203z " />
<glyph unicode="B" horiz-adv-x="1603" d="M74 -78v1450h119v-1450h-119zM289 -78v1450h657q127 0 225.5 -27.5t153.5 -68.5q66 -45 94.5 -119t28.5 -153q0 -41 -7 -82t-22 -78q-8 -18 -21 -39l-28 -43l-24 -30q-12 -15 -27 -30q100 -49 155.5 -142t55.5 -206q0 -123 -45 -205.5t-117 -132.5q-74 -49 -169 -70.5 t-198 -21.5zM338 -8l182 110l-182 113v-223zM338 272l182 113l-182 111v-224zM338 543l182 114l-182 111v-225zM338 815l182 111l-182 112v-223zM338 1075l182 111l-182 112v-223zM676 201q6 0 14 -1t17 -1q8 -2 16 -3t14 -1q43 0 76 10t53 26q23 16 33 43t10 60 q0 41 -16 79t-45 66l-172 -57v-221zM676 770q4 0 10 1t10 1l13 4l12 4q8 2 14 4t10 4q6 2 11.5 6.5t11.5 8.5q18 14 35.5 39.5t30.5 52.5q6 14 9 28.5t3 26.5v12q0 5 -2 11q-4 25 -16.5 47t-34.5 33q-6 2 -16.5 5t-22.5 7q-8 2 -17.5 4t-17.5 4q-10 2 -21.5 3t-21.5 1v-307z " />
<glyph unicode="C" horiz-adv-x="1284" d="M59 649q0 160 49.5 309.5t149.5 249.5v-1118q-100 102 -149.5 250.5t-49.5 308.5zM354 4v1290q88 61 195.5 94t232.5 33t235.5 -34.5t209.5 -104.5l-193 -565q-4 8 -9 17t-9 18q-29 47 -71 86t-93 39q-76 0 -125 -66t-49 -197q0 -31 7 -57.5t17 -50.5q4 -8 7.5 -18.5 t7.5 -18.5q16 -51 57 -81t86 -30q29 0 57.5 13.5t49.5 40.5l23 29q13 17 26 40q6 10 11 21.5t11 23.5l176 -526q-104 -61 -213.5 -93t-224.5 -32q-121 0 -227.5 33t-194.5 96zM403 -10l183 114l-183 111v-225zM403 272l183 113l-183 113v-226zM403 545l183 110l-183 111 v-221zM403 813l183 115l-183 112v-227zM403 1073l183 115l-183 112v-227z" />
<glyph unicode="D" horiz-adv-x="1609" d="M74 -78v1450h116v-1450h-116zM287 -78v1450h522q86 0 164 -13t141 -34q121 -39 228.5 -135t146.5 -219q23 -74 36 -154t13 -162v-20q0 -10 -2 -21q-4 -72 -17.5 -141.5t-37.5 -132.5q-27 -70 -71 -130t-99 -108q-84 -70 -190.5 -109.5t-219.5 -55.5q-45 -6 -90 -9.5 t-88 -3.5zM340 -10l180 114l-180 111v-225zM340 272l180 113l-180 113v-226zM340 545l180 110l-180 111v-221zM340 813l180 115l-180 112v-227zM340 1073l180 115l-180 112v-227zM672 303q111 47 167 150.5t56 261.5v2q0 127 -63.5 202.5t-159.5 96.5v-713z" />
<glyph unicode="E" horiz-adv-x="1337" d="M61 -78v1450h117v-1450h-117zM274 -78v1450h1002v-430l-643 100v-225l526 80v-461l-526 84v-231l643 88v-455h-1002zM328 -10l178 114l-178 111v-225zM328 272l178 113l-178 113v-226zM328 545l178 110l-178 111v-221zM328 813l178 115l-178 112v-227zM328 1073l178 115 l-178 112v-227z" />
<glyph unicode="F" horiz-adv-x="1300" d="M59 -78v1450h121v-1450h-119h-2zM276 -78v1450h965v-522l-563 100v-227l432 57v-538l-432 86v-406h-402zM328 -10l180 114l-180 111v-225zM328 272l180 113l-180 113v-226zM328 545l180 110l-180 111v-221zM328 813l180 115l-180 112v-227zM328 1073l180 115l-180 112 v-227z" />
<glyph unicode="G" horiz-adv-x="1642" d="M74 639q0 20 1 40.5t3 41.5q10 141 62.5 276.5t152.5 235.5v-1149q-111 111 -165 255t-54 300zM389 6v1307q96 68 219 100.5t266 32.5q168 0 315.5 -46t274.5 -138l-278 -406q-47 66 -108.5 100.5t-133.5 34.5q-113 0 -169 -83t-56 -249q0 -51 8 -99t23 -91 q23 -55 57.5 -84t79.5 -29q53 0 78.5 33t25.5 98q0 14 -2 37t-6 51q-29 0 -56.5 -9t-56.5 -25v266h697v-678q-162 -121 -349.5 -181.5t-381.5 -60.5q-131 0 -243 31t-204 88zM442 20l179 111l-179 113v-224zM442 303l179 111l-179 112v-223zM442 571l179 115l-179 113v-228z M442 844l179 112l-179 111v-223zM442 1104l179 113l-179 110v-223z" />
<glyph unicode="H" horiz-adv-x="1529" d="M70 -78v1450h118v-1450h-118zM285 -78v1450h348v-520h258v520h569v-1450h-569v508h-258v-508h-348zM334 -14l182 114l-182 113v-227zM334 268l182 115l-182 111v-226zM334 541l182 112l-182 111v-223zM334 811l182 115l-182 110v-225zM334 1071l182 115l-182 110v-225z " />
<glyph unicode="I" horiz-adv-x="686" d="M31 -78v1450h121v-1450h-121zM248 -78v1450h407v-1450h-407zM301 -14l180 114l-180 113v-227zM301 268l180 115l-180 111v-226zM301 541l180 112l-180 111v-223zM301 811l180 115l-180 110v-225zM301 1071l180 115l-180 110v-225z" />
<glyph unicode="J" horiz-adv-x="1314" d="M59 78l340 457q29 -76 70 -116t94 -40q59 0 82 43t23 129v268h-590l252 553h446v-1507q-10 0 -21.5 -1t-23.5 -1h-11h-11q-156 0 -319 54.5t-331 160.5zM872 -119v1491h383v-932q0 -102 -15 -179t-34 -124q-25 -66 -78 -119t-131 -92q-27 -16 -58.5 -26.5t-66.5 -18.5z M922 -14l184 114l-184 113v-227zM922 268l184 115l-184 111v-226zM922 541l184 112l-184 111v-223zM922 811l184 115l-184 110v-225zM922 1071l184 115l-184 110v-225z" />
<glyph unicode="K" horiz-adv-x="1689" d="M76 -78v1450h121v-1450h-121zM293 -78v1450h412v-667q84 53 142 130.5t87 163.5q18 53 30.5 112.5t18.5 119.5q4 35 5 70.5t1 70.5h303h303q-8 -61 -23.5 -125.5t-37.5 -130.5q-16 -47 -34.5 -92t-39.5 -90q-51 -106 -121.5 -206.5t-158.5 -176.5l434 -629h-631l-283 434 v-434h-407zM344 -14l182 114l-182 113v-227zM344 268l182 115l-182 111v-226zM344 541l182 112l-182 111v-223zM344 811l182 115l-182 110v-225zM344 1071l182 115l-182 110v-225z" />
<glyph unicode="L" horiz-adv-x="1187" d="M53 -78v1450h121v-1450h-117h-4zM270 -78v1450h430v-964l433 127v-613h-863zM324 -12l180 112l-180 111v-223zM324 270l180 111l-180 113v-224zM324 539l180 114l-180 113v-227zM324 811l180 113l-180 110v-223zM324 1071l180 113l-180 110v-223z" />
<glyph unicode="M" horiz-adv-x="1687" d="M76 -78v1450h119v-1450h-119zM291 -78v1450h407l160 -518l184 518h570v-1450h-596v438l-164 -325l-184 325v-438h-377zM340 -14l182 114l-182 113v-227zM340 268l182 115l-182 111v-226zM340 541l182 112l-182 111v-223zM340 811l182 115l-182 110v-225zM340 1071 l182 115l-182 110v-225z" />
<glyph unicode="N" horiz-adv-x="1607" d="M74 -76v1448h108v-1448h-108zM279 -78v1450h364l268 -586v586h623v-1450h-565l-330 416v-416h-360zM332 -10l180 114l-180 111v-225zM332 270l180 115l-180 113v-228zM332 543l180 112l-180 111v-223zM332 813l180 115l-180 110v-225zM332 1073l180 115l-180 110v-225z " />
<glyph unicode="O" horiz-adv-x="1728" d="M78 647q0 145 52 275.5t142 232.5v-1018q-90 102 -142 233.5t-52 276.5zM369 47v1200q6 4 12 9.5t14 9.5q6 4 12.5 9t12.5 9v-209l180 111l-168 106q94 59 203.5 93t228.5 34q324 0 555.5 -226t231.5 -545.5t-231.5 -545t-555.5 -225.5q-119 0 -227.5 33t-202.5 90 l166 102l-180 111v-205q-6 4 -12.5 9.5t-12.5 11.5q-8 4 -14 9t-12 9zM420 272l180 111l-180 113v-224zM420 543l180 112l-180 113v-225zM420 815l180 111l-180 110v-221zM733 647q0 -106 39 -182t92 -76t92 76t39 182.5t-38.5 181t-92.5 74.5q-53 0 -92 -75t-39 -181z" />
<glyph unicode="P" horiz-adv-x="1587" d="M72 -78v1450h125v-1446h-121v-4h-4zM293 -78v1450h518q158 0 284 -36t214 -101q100 -76 152 -192.5t52 -272.5h3q0 -51 -7.5 -96t-21.5 -86q-45 -123 -129 -209t-205 -133q-82 -31 -191.5 -46.5t-238.5 -15.5h-17q-9 0 -18 2h-17h-18v-264h-360zM342 -10l182 112 l-182 111v-223zM342 272l182 111l-182 113v-224zM342 543l182 112l-182 113v-225zM342 815l182 111l-182 110v-221zM342 1075l182 111l-182 112v-223zM684 543q49 0 86 16t66 55q16 23 27 50.5t18 56.5q0 8 1 18.5t1 18.5q0 37 -12.5 71.5t-36.5 63.5q-25 29 -64 47t-86 27 v-424z" />
<glyph unicode="Q" horiz-adv-x="1763" d="M80 647q0 135 45 258t125 221v-960q-80 98 -125 221t-45 260zM346 66v1161q6 6 13 11l14 9q6 6 13 11l13 10v-193l181 111l-158 98q96 63 207.5 99t236.5 36q324 0 555.5 -226t231.5 -546q0 -88 -20.5 -171t-55.5 -159l106 -22l-108 -397q-76 20 -148.5 42.5t-142.5 55.5 q-90 -57 -196.5 -88t-221.5 -31q-123 0 -234.5 34t-205.5 97l154 94l-181 111v-188l-13 9q-7 5 -13 11l-14 9q-7 6 -13 12zM399 272l181 111l-181 113v-224zM399 543l181 112l-181 113v-225zM399 815l181 111l-181 110v-221zM735 647q0 -106 39 -182t92 -76q18 0 37 10.5 t33 28.5q-2 6 -5 11t-5 12q-2 2 -2 3v3q-14 29 -32 54.5t-61 37.5q23 23 55 31t68 8h20q9 0 19 -2q0 6 1 10t1 10q0 10 1 20.5t1 20.5q0 106 -38.5 181t-92.5 75q-53 0 -92 -75t-39 -181z" />
<glyph unicode="R" horiz-adv-x="1646" d="M76 -74v1446h108v-1446h-108zM281 -78v1450h583q127 0 225.5 -15.5t159.5 -37.5q90 -33 161 -103.5t110 -166.5q16 -43 25 -91.5t9 -97.5q-2 -70 -17 -138.5t-46 -123.5q-14 -25 -32.5 -48.5t-41.5 -47.5q-25 -25 -52 -48l-58 -48l266 -484h-580l-327 346v-346h-385z M334 -10l180 112l-180 111v-223zM334 272l180 111l-180 113v-224zM334 543l180 112l-180 113v-225zM334 815l180 111l-180 110v-221zM334 1075l180 111l-180 112v-223zM668 586q4 0 7 1t7 3q45 10 86 29.5t70 48.5q25 25 40 57.5t19 67.5q2 8 2 15v13q0 41 -15.5 78 t-49.5 62q-25 20 -68 33.5t-98 21.5v-430z" />
<glyph unicode="S" horiz-adv-x="1378" d="M63 1073q0 76 39 140.5t129 103.5v-576l-9 10l-9 9q-55 49 -94 116.5t-51 139.5q-2 14 -3.5 28.5t-1.5 28.5zM111 -78v598q33 -18 62 -37l58 -34v-525h-116v-2h-4zM328 -78v475q53 -25 111.5 -39t129.5 -14q41 0 61.5 14.5t20.5 40.5q0 23 -38 61t-113 89l-92 62l-80 57 v678q53 12 118.5 19t141.5 7h672v-549l-105 54q-41 20 -76 28q-14 4 -27.5 6t-29.5 2q-37 0 -55.5 -11t-18.5 -32q0 -14 24.5 -41.5t69.5 -64.5q59 -47 106.5 -93t74.5 -81q39 -51 63.5 -120t28.5 -140q2 -8 2 -18v-17q0 -92 -38 -173t-122 -126q-53 -31 -150.5 -50.5 t-203.5 -21.5h-7h-5zM381 45l180 111l-180 112v-223zM381 739l180 111l-180 111v-222zM381 999l180 111l-180 111v-222z" />
<glyph unicode="T" horiz-adv-x="1423" d="M66 727v645h464v-1448h-116v905zM627 -78v1450h733v-645l-367 102v-907h-366zM676 -10l184 114l-184 111v-225zM676 270l184 115l-184 113v-228zM676 543l184 112l-184 111v-223zM676 813l184 115l-184 110v-225zM676 1073l184 115l-184 110v-225z" />
<glyph unicode="U" horiz-adv-x="1650" d="M76 434v938h121v-1311q-57 68 -89 161t-32 212zM291 -20v1392h405v-754q0 -119 33 -157.5t92 -38.5t82 43t23 151v756h649v-940q0 -156 -56.5 -272.5t-152.5 -179.5q-82 -57 -207 -87t-289 -30q-186 0 -324 24.5t-222 71.5q-8 4 -15.5 9.5t-17.5 11.5zM344 -10l180 114 l-180 111v-225zM344 270l180 115l-180 113v-228zM344 543l180 112l-180 111v-223zM344 813l180 115l-180 110v-225zM344 1073l180 115l-180 110v-225z" />
<glyph unicode="V" horiz-adv-x="1488" d="M68 1372h131l360 -1450h-127zM299 1372h453l112 -710q53 125 80 267t27 298q0 25 -1 49t-3 49q0 12 -1 23.5t-1 23.5h456q-20 -326 -127.5 -688t-302.5 -760l-329 -2zM373 1286l53 -219l147 154zM434 1032l55 -217l148 156zM500 770l55 -217l145 154zM565 510l56 -221 l145 155zM633 233l55 -217l150 152z" />
<glyph unicode="W" horiz-adv-x="2424" d="M111 1372h135l362 -1450h-153zM346 1372h442l119 -741l129 559l-37 182h656l114 -747q49 121 75 269t26 320v44q0 22 2 42v37v35h444q-8 -176 -37.5 -362.5t-83.5 -380.5q-51 -190 -118.5 -367.5t-147.5 -337.5l-573 -2l-131 488l-193 -488h-323zM418 1286l53 -219 l152 154zM481 1032l56 -217l147 156zM545 770l57 -217l148 154zM614 510l52 -221l149 155zM682 233l53 -217l148 152z" />
<glyph unicode="X" horiz-adv-x="1712" d="M78 -78l465 635l-441 815h140l770 -1450h-131l-164 305l-127 -305h-512zM352 1372h398l188 -309l127 309h569l-499 -639l489 -811h-502zM469 1262l104 -199l109 184zM590 1030l104 -199l105 187zM717 791l104 -195l109 182zM844 549l106 -197l107 189zM977 305l104 -199 l109 183z" />
<glyph unicode="Y" horiz-adv-x="1699" d="M78 1372h141l782 -1530q-61 -45 -148 -68.5t-202 -23.5q-43 0 -129 4t-215 15l-168 550q88 -49 178.5 -74.5t182.5 -25.5q45 0 81.5 9.5t67.5 23.5zM328 1372h489l187 -543l129 543h489l-422 -1210q-27 -78 -59.5 -139.5t-69.5 -106.5zM422 1296l102 -198l109 180z M541 1063l104 -197l107 178zM668 821l102 -200l104 182zM788 580l103 -201l108 186zM915 330l103 -201l110 182z" />
<glyph unicode="Z" horiz-adv-x="1466" d="M68 -78l481 965l-447 -125v610h816l-705 -1450h-145zM322 -78l704 1450h375l-404 -952l359 61v-559h-1034zM444 59l207 19l-110 182zM565 309l213 25l-116 176zM686 557l211 23l-115 178zM803 803l215 18l-119 178zM918 1030l215 17l-115 186z" />
<glyph unicode="[" />
<glyph unicode="\" />
<glyph unicode="]" />
<glyph unicode="^" />
<glyph unicode="_" />
<glyph unicode="`" />
<glyph unicode="a" horiz-adv-x="1720" d="M78 -82l330 1030h-160v404h932l462 -1432h-569l-55 232h-367l-57 -234h-516zM725 442h223l-112 457z" />
<glyph unicode="b" horiz-adv-x="1466" d="M66 -82v1434h860q180 0 306 -103.5t126 -253.5q0 -98 -56.5 -179t-152.5 -128q113 -53 182.5 -148.5t69.5 -211.5q0 -168 -145.5 -288t-350.5 -120zM608 260h41q66 0 111 35t45 82t-45 82t-111 35h-41v-234zM608 858h92q55 0 95.5 27.5t40.5 66.5q0 43 -40 73t-96 30h-92 v-197z" />
<glyph unicode="c" horiz-adv-x="1409" d="M63 637q0 295 200 505t482 210h598v-467h-417q-100 0 -173 -73t-73 -175t72.5 -176t173.5 -74h417v-469h-598q-283 2 -482.5 212t-199.5 507z" />
<glyph unicode="d" horiz-adv-x="1564" d="M72 -82v1434h741q283 0 482.5 -210t199.5 -505q0 -297 -199.5 -507t-482.5 -210zM645 387q96 6 165 78t69 172q0 98 -69 171t-165 75v-496z" />
<glyph unicode="e" horiz-adv-x="1019" d="M47 -82v1434h905v-391h-393v-130h393v-286h-393v-191h416v-436h-928z" />
<glyph unicode="f" horiz-adv-x="997" d="M45 -82v1434h907v-391h-393v-130h393v-286h-393v-627h-514z" />
<glyph unicode="g" horiz-adv-x="1421" d="M63 637q0 295 200 505t482 210h598v-467h-417q-100 0 -173 -73t-73 -175q0 -96 60.5 -166t148.5 -82v193l-66 120l533 3v-787h-611q-283 2 -482.5 212t-199.5 507z" />
<glyph unicode="h" horiz-adv-x="1388" d="M61 -82v1434h547v-379h172v381h545v-1434h-545v565h-172v-567h-547z" />
<glyph unicode="i" horiz-adv-x="630" d="M35 -82v1434h567v-1434h-567z" />
<glyph unicode="j" horiz-adv-x="1118" d="M51 311q20 -6 42 -7t44 -1q152 0 256.5 104.5t104.5 251.5v693h569v-738q0 -303 -217 -520t-522 -217h-9h-8h-8h-8z" />
<glyph unicode="k" horiz-adv-x="1472" d="M66 -82v1434h548v-447l476 486l315 -314l-348 -348q0 -68 39 -109.5t84 -72.5l3 -3q1 -1 3 -1q29 -18 62.5 -34.5t70.5 -31.5l41 -16q20 -8 39 -17v-524q-139 2 -267 41t-233 113q-102 72 -176 180t-109 250v-586h-548z" />
<glyph unicode="l" horiz-adv-x="1036" d="M47 -82v1434h528v-959h414v-473z" />
<glyph unicode="m" horiz-adv-x="1726" d="M78 -82v1434h6l-4 2h477l246 -342l264 340h582v-1434h-582v680l-221 -281l-289 281v-680h-479z" />
<glyph unicode="n" horiz-adv-x="1411" d="M63 -82v1434h504l277 -457v459h502v-1434h-502l-277 596v-598h-504z" />
<glyph unicode="o" horiz-adv-x="1671" d="M76 631q0 307 224 524t536 217q313 0 536 -217t223 -524q0 -305 -223 -520t-536 -215q-311 0 -535.5 215t-224.5 520zM647 631q0 -137 55.5 -232.5t133.5 -95.5t134 95.5t56 232.5t-56.5 235.5t-133.5 98.5q-78 0 -133.5 -98.5t-55.5 -235.5z" />
<glyph unicode="p" horiz-adv-x="1376" d="M61 -61v1433h582q276 0 474 -162.5t198 -400.5q0 -231 -197.5 -397t-474.5 -166q-4 0 -8 1t-8 1q-6 0 -10.5 1t-8.5 1v-311h-547zM608 651h25q68 0 113 50.5t45 123.5q0 72 -45.5 120t-112.5 48h-25v-342z" />
<glyph unicode="q" horiz-adv-x="1783" d="M80 651q0 307 224 525.5t540 218.5q311 0 532 -218.5t221 -525.5q0 -123 -38.5 -234.5t-108.5 -201.5q8 -2 16.5 -3t16.5 -1q8 -2 16 -2h17q16 0 31 2l32 4l31 9q16 5 30 12q6 2 11.5 5l9.5 5q12 6 22.5 13t18.5 17l-37 -428q-2 0 -3 -1t-3 -1q-4 -2 -7 -5t-10 -3 q-39 -18 -78.5 -29.5t-80.5 -19.5q-27 -4 -53.5 -6t-53.5 -2q-111 0 -216 38t-191 109q-14 -2 -30.5 -4t-31.5 -4q-16 0 -31.5 -1t-31.5 -1q-315 0 -539.5 215t-224.5 518zM651 651q0 -133 55.5 -230t137.5 -97q78 0 132 97t54 230q0 137 -54 235.5t-132 98.5 q-82 0 -137.5 -98.5t-55.5 -235.5z" />
<glyph unicode="r" horiz-adv-x="1417" d="M63 -61v1435h582q276 0 473 -163.5t197 -401.5q0 -111 -47 -209t-131 -174q23 -20 51.5 -34.5t60.5 -14.5q31 0 57.5 10t47.5 31v-459q-20 -2 -41 -5t-39 -7l-41 -4q-20 -2 -41 -2q-180 0 -327.5 84t-239.5 221q-2 0 -4 1l-3 1q-2 0 -4 1t-4 1v-311h-547zM610 651h25 q68 0 113 50.5t45 123.5q0 72 -45.5 120t-112.5 48h-25v-342z" />
<glyph unicode="s" horiz-adv-x="1359" d="M61 467q2 -2 37 -10t80 -17q2 0 4 -1t4 -1q45 -8 84 -16t41 -8q6 -2 12 -2h9q39 0 69.5 26.5t36.5 67.5l72 395q37 225 204 368.5t378 143.5q23 0 47 -2t49 -6l110 -485q-14 4 -32.5 6t-38.5 2q-14 0 -27.5 -1t-28.5 -3q-70 -8 -128 -37t-64 -74l-70 -395 q-39 -225 -203.5 -367.5t-373.5 -142.5q-12 0 -25.5 1t-25.5 1l-26 4l-26 4q-2 2 -39.5 7t-83.5 16q-6 0 -12 1t-12 3z" />
<glyph unicode="t" horiz-adv-x="1253" d="M57 950v420h1139v-420h-311v-1011h-508v1011h-320z" />
<glyph unicode="u" horiz-adv-x="1527" d="M68 489v883h540v-889q0 -43 31 -74.5t76 -31.5q29 0 54.5 15.5t39.5 35.5v942h549v-1212l98 -221h-547l-86 102q-25 -25 -51.5 -40t-52.5 -28q-47 -18 -92 -24t-76 -6q-225 0 -354 159.5t-129 388.5z" />
<glyph unicode="v" horiz-adv-x="1841" d="M84 1370h659l209 -407l207 407h598l-504 -997l101 -197l-525 -266z" />
<glyph unicode="w" horiz-adv-x="2789" d="M127 1372h596l266 -530l172 186l-172 342h617l202 -426l256 426h596l-553 -1032l113 -162l-485 -266l-310 598l-180 -180l92 -178l-479 -240z" />
<glyph unicode="x" horiz-adv-x="1890" d="M86 838l322 546h12h12q152 0 294 -59t247 -170l143 217h572l-455 -702l571 -733h-651l-207 288l-190 -286h-576l453 692l-17 35q-41 104 -133 165.5t-200 61.5q-33 0 -67 -6t-66 -19l-21.5 -9t-22.5 -11q-6 -2 -11 -5t-9 -5z" />
<glyph unicode="y" horiz-adv-x="1654" d="M76 1372h614l180 -340l183 338h524l-762 -1433h-606l313 542z" />
<glyph unicode="z" horiz-adv-x="1460" d="M66 -63v288l593 676h-518v469h1159v-430l-514 -530h611v-473h-1331z" />
<glyph unicode="{" />
<glyph unicode="|" />
<glyph unicode="}" />
<glyph unicode="~" />
<glyph unicode="&#xa0;" />
<glyph unicode="&#xa1;" />
<glyph unicode="&#xa2;" />
<glyph unicode="&#xa3;" horiz-adv-x="1204" d="M55 -47v354q70 6 117 17.5t90 23.5v254h-172v141h174q20 262 195.5 442.5t412.5 180.5h39h76h76h39l2 -401q-6 2 -12.5 3t-12.5 3q-12 2 -23 2h-26q-100 0 -177 -64.5t-105 -165.5h280v-141h-293v-270q72 -12 155 -22.5t189 -10.5h16q7 0 15 2h16h17l6 -354 q-25 0 -49.5 -1t-48.5 -1q-94 0 -177 11t-155 26q-74 14 -139.5 24t-124.5 10q-68 0 -113 -7t-86 -17l-20 -4q-10 -2 -21 -6q-33 -8 -71 -15.5t-89 -13.5z" />
<glyph unicode="&#xa4;" />
<glyph unicode="&#xa5;" />
<glyph unicode="&#xa6;" />
<glyph unicode="&#xa7;" />
<glyph unicode="&#xa8;" />
<glyph unicode="&#xa9;" />
<glyph unicode="&#xaa;" />
<glyph unicode="&#xab;" />
<glyph unicode="&#xac;" />
<glyph unicode="&#xad;" />
<glyph unicode="&#xae;" />
<glyph unicode="&#xaf;" />
<glyph unicode="&#xb0;" />
<glyph unicode="&#xb1;" />
<glyph unicode="&#xb2;" />
<glyph unicode="&#xb3;" />
<glyph unicode="&#xb4;" />
<glyph unicode="&#xb5;" />
<glyph unicode="&#xb6;" />
<glyph unicode="&#xb7;" />
<glyph unicode="&#xb8;" />
<glyph unicode="&#xb9;" />
<glyph unicode="&#xba;" />
<glyph unicode="&#xbb;" />
<glyph unicode="&#xbc;" />
<glyph unicode="&#xbd;" />
<glyph unicode="&#xbe;" />
<glyph unicode="&#xbf;" />
<glyph unicode="&#xc0;" />
<glyph unicode="&#xc1;" />
<glyph unicode="&#xc2;" />
<glyph unicode="&#xc3;" />
<glyph unicode="&#xc4;" />
<glyph unicode="&#xc5;" />
<glyph unicode="&#xc6;" />
<glyph unicode="&#xc7;" />
<glyph unicode="&#xc8;" />
<glyph unicode="&#xc9;" />
<glyph unicode="&#xca;" />
<glyph unicode="&#xcb;" />
<glyph unicode="&#xcc;" />
<glyph unicode="&#xcd;" />
<glyph unicode="&#xce;" />
<glyph unicode="&#xcf;" />
<glyph unicode="&#xd0;" />
<glyph unicode="&#xd1;" />
<glyph unicode="&#xd2;" />
<glyph unicode="&#xd3;" />
<glyph unicode="&#xd4;" />
<glyph unicode="&#xd5;" />
<glyph unicode="&#xd6;" />
<glyph unicode="&#xd7;" />
<glyph unicode="&#xd8;" />
<glyph unicode="&#xd9;" />
<glyph unicode="&#xda;" />
<glyph unicode="&#xdb;" />
<glyph unicode="&#xdc;" />
<glyph unicode="&#xdd;" />
<glyph unicode="&#xde;" />
<glyph unicode="&#xdf;" />
<glyph unicode="&#xe0;" />
<glyph unicode="&#xe1;" />
<glyph unicode="&#xe2;" />
<glyph unicode="&#xe3;" />
<glyph unicode="&#xe4;" />
<glyph unicode="&#xe5;" />
<glyph unicode="&#xe6;" />
<glyph unicode="&#xe7;" />
<glyph unicode="&#xe8;" />
<glyph unicode="&#xe9;" />
<glyph unicode="&#xea;" />
<glyph unicode="&#xeb;" />
<glyph unicode="&#xec;" />
<glyph unicode="&#xed;" />
<glyph unicode="&#xee;" />
<glyph unicode="&#xef;" />
<glyph unicode="&#xf0;" />
<glyph unicode="&#xf1;" />
<glyph unicode="&#xf2;" />
<glyph unicode="&#xf3;" />
<glyph unicode="&#xf4;" />
<glyph unicode="&#xf5;" />
<glyph unicode="&#xf6;" />
<glyph unicode="&#xf7;" />
<glyph unicode="&#xf8;" />
<glyph unicode="&#xf9;" />
<glyph unicode="&#xfa;" />
<glyph unicode="&#xfb;" />
<glyph unicode="&#xfc;" />
<glyph unicode="&#xfd;" />
<glyph unicode="&#xfe;" />
<glyph unicode="&#xff;" />
<glyph unicode="&#x152;" />
<glyph unicode="&#x153;" />
<glyph unicode="&#x178;" />
<glyph unicode="&#x2c6;" />
<glyph unicode="&#x2dc;" />
<glyph unicode="&#x2000;" horiz-adv-x="722" />
<glyph unicode="&#x2001;" horiz-adv-x="1445" />
<glyph unicode="&#x2002;" horiz-adv-x="722" />
<glyph unicode="&#x2003;" horiz-adv-x="1445" />
<glyph unicode="&#x2004;" horiz-adv-x="481" />
<glyph unicode="&#x2005;" horiz-adv-x="360" />
<glyph unicode="&#x2006;" horiz-adv-x="239" />
<glyph unicode="&#x2007;" horiz-adv-x="239" />
<glyph unicode="&#x2008;" horiz-adv-x="180" />
<glyph unicode="&#x2009;" horiz-adv-x="288" />
<glyph unicode="&#x200a;" horiz-adv-x="79" />
<glyph unicode="&#x2010;" />
<glyph unicode="&#x2011;" />
<glyph unicode="&#x2012;" />
<glyph unicode="&#x2013;" />
<glyph unicode="&#x2014;" />
<glyph unicode="&#x2018;" />
<glyph unicode="&#x2019;" />
<glyph unicode="&#x201a;" />
<glyph unicode="&#x201c;" />
<glyph unicode="&#x201d;" />
<glyph unicode="&#x201e;" />
<glyph unicode="&#x2022;" />
<glyph unicode="&#x2026;" />
<glyph unicode="&#x202f;" horiz-adv-x="288" />
<glyph unicode="&#x2039;" />
<glyph unicode="&#x203a;" />
<glyph unicode="&#x205f;" horiz-adv-x="360" />
<glyph unicode="&#x2122;" />
<glyph unicode="&#xe000;" horiz-adv-x="1385" d="M0 1385h1385v-1385h-1385v1385z" />
<glyph unicode="&#xfb01;" horiz-adv-x="1628" d="M1032 -82v1434h567v-1434h-567zM45 -82v1434h907v-391h-393v-130h393v-286h-393v-627h-514z" />
<glyph unicode="&#xfb02;" horiz-adv-x="2033" d="M1044 -82v1434h528v-959h414v-473zM45 -82v1434h907v-391h-393v-130h393v-286h-393v-627h-514z" />
<glyph unicode="&#xfb03;" horiz-adv-x="2625" d="M2030 -82v1434h567v-1434h-567zM1042 -82v1434h907v-391h-393v-130h393v-286h-393v-627h-514zM45 -82v1434h907v-391h-393v-130h393v-286h-393v-627h-514z" />
<glyph unicode="&#xfb04;" horiz-adv-x="3031" d="M2042 -82v1434h528v-959h414v-473zM1042 -82v1434h907v-391h-393v-130h393v-286h-393v-627h-514zM45 -82v1434h907v-391h-393v-130h393v-286h-393v-627h-514z" />
</font>
</defs>
</svg>
