<?xml version="1.0" standalone="no"?>
<!DOCTYPE svg PUBLIC "-//W3C//DTD SVG 1.1//EN" "http://www.w3.org/Graphics/SVG/1.1/DTD/svg11.dtd" >
<svg xmlns="http://www.w3.org/2000/svg">
<metadata>
This is a custom SVG webfont generated by Font Squirrel.
Copyright   : c 2000 Nick Curtis All Rights Reserved Generated by Fontographer 352 
</metadata>
<defs>
<font id="webfonthBu3Xocj" horiz-adv-x="1024" >
<font-face units-per-em="2048" ascent="1638" descent="-410" />
<missing-glyph horiz-adv-x="563" />
<glyph unicode=" "  horiz-adv-x="563" />
<glyph unicode="&#x09;" horiz-adv-x="563" />
<glyph unicode="&#xa0;" horiz-adv-x="563" />
<glyph unicode="!" horiz-adv-x="413" d="M31 4l63 201h215l-65 -201h-213zM147 367l277 847h213l-277 -847h-213z" />
<glyph unicode="&#x22;" horiz-adv-x="286" d="M29 1028l129 236h192l-127 -236h-194zM274 1028l129 236h193l-127 -236h-195z" />
<glyph unicode="#" />
<glyph unicode="$" horiz-adv-x="837" d="M2 244l66 202h191h190q14 0 22 9.5t12 21.5l-46 52l-48 51l-46 50l-48 52q-33 35 -48.5 78t-13.5 88q2 113 86 189.5t183 125.5l40.5 19.5t41.5 17.5l41 125h143l-29 -80q23 2 43.5 2t38.5 -4q66 -12 103 -60t34 -112v-9v-9q0 -12 -3 -23.5t-5 -23.5q-8 -33 -24.5 -64 t-34.5 -57l-71 -101l-70 -98l-166 117l35.5 50.5l35.5 49.5l34 50q17 26 36 51q2 2 3 4t3 4q2 4 5 8t5 8q2 2 4.5 6t2.5 6q-18 -4 -38 -10l-40 -12q-35 -14 -70 -30.5t-63 -35.5l-20 -13l-30 -21q-12 -10 -24 -22.5t-21 -25.5q-4 -8 -6 -15t-2 -13l4 -13q2 -6 6 -10l53 -54 l50 -56l50 -55l52 -56q18 -18 26.5 -42t12.5 -48v-11v-10q0 -25 -5 -48t-15 -46q-29 -68 -88.5 -108.5t-130.5 -40.5h-17h-16l-78 -240h-143l77 240h-135h-135z" />
<glyph unicode="%" />
<glyph unicode="&#x26;" horiz-adv-x="1200" d="M2 195q0 8 1 17t3 19q8 51 36 99.5t77 81.5l41 28l41 29q20 12 41 27l41 28q-2 2 -3 4l-4 7q-27 43 -48 94t-21 106q0 16 3 31.5t7 32.5q35 104 153.5 190t256.5 117q29 8 57.5 11t56.5 3q61 0 116.5 -18.5t96.5 -59.5q23 -20 37.5 -47.5t18.5 -60.5q2 -8 2 -15v-16 q0 -82 -57.5 -153.5t-127.5 -126.5l-55 -42l-49 -36l-117 166l40 28l59 45l16 15.5t18 13.5q27 25 47.5 47.5t22.5 38.5q-12 10 -29.5 15.5t-40.5 3.5q-27 0 -56.5 -6.5t-59.5 -16.5q-53 -20 -103.5 -51t-81.5 -64q-10 -12 -17 -23.5t-11 -21.5v-2q0 -12 20.5 -52l44.5 -83 q4 -4 6 -8l4 -8l43 -73q20 -34 29 -46l-326 -219l-3 -3l-3 -3q-6 -4 -12 -12.5t-8 -16.5h140h140h141h140q6 0 13 2t16 6q14 8 27.5 20.5t17.5 26.5h-183l66 203h520l-65 -203h-134q-6 -102 -91 -181t-187 -79h-286h-285q-98 0 -145.5 57.5t-47.5 133.5z" />
<glyph unicode="'" horiz-adv-x="77" d="M18 1028l129 236h193l-127 -236h-195z" />
<glyph unicode="(" />
<glyph unicode=")" />
<glyph unicode="*" />
<glyph unicode="+" />
<glyph unicode="," horiz-adv-x="307" d="M14 -61l80 92v1l-1 2l-1 1q-20 18 -30.5 42.5t-10.5 51.5q0 23 6 42t21 36q18 20 42.5 30.5t51.5 10.5h9q5 0 12 -2q14 -2 29.5 -9.5t27.5 -17.5q23 -18 33 -42.5t10 -51.5v-9q0 -5 -2 -12q-2 -14 -9.5 -29.5t-17.5 -27.5l-160 -186z" />
<glyph unicode="-" horiz-adv-x="454" d="M27 510l65 203h453l-68 -203h-450z" />
<glyph unicode="." horiz-adv-x="268" d="M12 127q0 51 36 86t85 35q51 0 87 -35t36 -86t-36 -87t-87 -36q-49 0 -85 36t-36 87z" />
<glyph unicode="/" />
<glyph unicode="0" horiz-adv-x="1005" d="M4 469q0 18 1 35.5t3 36.5q14 139 76.5 271t151.5 224q80 84 175 131t195 47q96 0 176 -46t131 -128q41 -66 59.5 -139.5t18.5 -150.5q0 -16 -1 -35t-3 -35q-12 -139 -74.5 -271.5t-150.5 -224.5q-68 -70 -150 -114.5t-168 -59.5q-14 -2 -29.5 -3t-29.5 -1q-86 0 -165 41 t-138 133q-41 66 -59.5 139.5t-18.5 149.5zM211 460q0 -9 2 -18q4 -88 44 -160.5t134 -72.5q111 0 198 87t136 193q18 37 30.5 73t18.5 69q6 25 9 53.5t3 60.5v20q0 9 -2 19q-6 86 -47 157t-131 71q-111 0 -197.5 -87t-138.5 -194q-16 -37 -29.5 -72.5t-19.5 -68.5 q-4 -25 -7 -53.5t-3 -59.5v-17z" />
<glyph unicode="1" horiz-adv-x="491" d="M0 4l393 1210h213l-393 -1210h-213z" />
<glyph unicode="2" horiz-adv-x="1087" d="M0 125q47 35 103.5 58.5t113.5 25.5q129 76 250 161t233 183q10 8 21 18l20 21q43 47 81 107.5t50 123.5q2 10 3.5 21.5t1.5 21.5q0 12 -1.5 23.5t-5.5 21.5q-12 53 -54 74t-91 25q-8 2 -17 2h-18q-37 0 -83 -15.5t-95 -44.5q-55 -31 -108.5 -69.5t-102.5 -79.5l-25 -22 l-24 -21l-137 149q16 16 34.5 32.5l38.5 33.5q100 82 224.5 153.5t253.5 85.5q12 0 24 1.5t25 1.5q55 0 109.5 -14.5t105.5 -49.5q78 -51 112.5 -128t34.5 -161q0 -16 -1 -32.5t-5 -32.5q-2 -18 -6 -35l-8 -33q-2 -8 -5 -15t-5 -14q-29 -82 -82.5 -159.5t-130.5 -143.5 q-57 -51 -119 -98l-125 -92h430l-66 -205h-725q-31 0 -60.5 -12t-51.5 -31z" />
<glyph unicode="3" horiz-adv-x="1071" d="M-4 86l74 188q49 -18 105 -31.5t114 -21.5q49 -6 95 -9t89 -3q25 0 58.5 5t68.5 15q63 18 117.5 57.5t54.5 100.5t-53 99t-119 59q-37 10 -70.5 15t-58.5 5v203h11h12q66 2 130 17.5t115 39.5q10 4 20.5 9.5t20.5 11.5q31 16 55.5 40.5t24.5 57.5q0 27 -28.5 40t-63.5 20 q-27 6 -50.5 7t-33.5 1q-27 0 -53.5 -1t-50.5 -3q-53 -6 -105.5 -13.5l-103.5 -15.5l-33 201l23 4q11 2 26 4q57 10 126 18t138 11h12h11q98 0 187 -25t147 -92q29 -33 43 -74t14 -82q-2 -20 -5 -41.5t-9 -42.5q-20 -63 -76.5 -117.5t-134.5 -95.5q63 -51 96 -111.5 t37 -123.5q2 -6 2 -13v-12q0 -78 -41 -151.5t-119 -129.5q-82 -57 -172 -78.5t-184 -21.5q-61 0 -123 7t-121 16q-59 10 -116.5 24.5t-102.5 32.5z" />
<glyph unicode="4" horiz-adv-x="1007" d="M-4 270l82 250l782 694h260l-239 -741h110l-67 -203h-109l-86 -266h-217l90 266h-606zM330 473h338l135 422z" />
<glyph unicode="5" horiz-adv-x="991" d="M2 23l27 200q53 -6 113.5 -11t123.5 -5h20h19q131 4 251 47t179 160q6 10 8 20t2 19q0 31 -29.5 46t-64.5 21q-8 2 -16 3t-17 3q-33 6 -64.5 8.5t-64.5 2.5q-29 0 -58.5 -2.5t-59.5 -6.5q-57 -6 -116.5 -18t-121.5 -27l242 731h567l-65 -202h-357l-88 -273q39 2 81 1 t85 -5q70 -6 134.5 -25.5t115.5 -56.5q53 -39 78.5 -88t25.5 -104q0 -16 -2 -33.5t-6 -34.5l-12 -36q-6 -17 -14 -33q-94 -188 -272.5 -253t-373.5 -67h-7h-5q-66 0 -131.5 5.5t-126.5 13.5z" />
<glyph unicode="6" horiz-adv-x="897" d="M6 336q0 18 2 37.5t6 40.5q16 80 47 157.5t70 147.5q74 133 168 259t199 236h272l8 -8l-50 -47l-52 -51q-39 -39 -77 -82l-75 -88l-66 -87q-34 -44 -65 -91l21 4q10 2 22 2q10 2 21 2h20q139 0 241.5 -89t102.5 -235q0 -176 -143 -304t-316 -136h-10h-8q-10 0 -20.5 1 t-20.5 3q-12 0 -22 2l-21 4q-123 29 -188.5 119t-65.5 203zM207 328q0 -45 26.5 -75t71.5 -40q10 -2 21.5 -3t23.5 -1q10 0 21.5 1t21.5 3q84 16 154.5 81.5t70.5 149.5q0 61 -43 91t-98 30q-14 0 -29.5 -2t-29.5 -6q-80 -20 -145.5 -83.5t-65.5 -145.5z" />
<glyph unicode="7" horiz-adv-x="751" d="M8 1012v202h852l-30 -51q-15 -27 -31 -51l-195 -335q-96 -169 -180 -345q-51 -109 -92 -216t-70 -212h-209q55 246 169 477.5t237 448.5l23 41l24 41h-498z" />
<glyph unicode="8" horiz-adv-x="1157" d="M8 340q0 18 3 36.5t7 37.5q27 92 108 170t181 123q-20 31 -31.5 66.5t-11.5 74.5q0 16 3 33.5t7 36.5q31 113 131.5 185.5t215.5 98.5q29 6 57.5 9t56.5 3q12 0 24.5 -1t24.5 -1q113 -12 206 -81.5t93 -196.5q0 -80 -42 -146.5t-103 -113.5q57 -43 93 -102.5t36 -135.5 q0 -18 -3 -36.5t-7 -39.5q-43 -154 -200 -245.5t-335 -106.5q-16 -2 -32 -2h-29q-106 0 -203.5 32t-163.5 99q-41 41 -63.5 93.5t-22.5 109.5zM211 336q0 -45 43 -72.5t96 -40.5q31 -8 60.5 -11t50.5 -3q33 0 80 8t98 23q84 27 154.5 76t70.5 120q0 47 -43 75t-96 40 q-31 8 -60.5 11t-50.5 3q-33 0 -76.5 -6t-88.5 -20q-78 -23 -147 -67t-87 -112q-2 -6 -3 -12t-1 -12zM467 846q0 -29 27.5 -46.5t60.5 -25.5l32 -4q15 -2 27 -2q23 0 49.5 4t55.5 14q53 16 100 49t60 83q2 4 2 9v9q0 29 -27 45t-59 25l-32 4q-15 2 -28 2q-23 0 -49.5 -4 t-54.5 -13q-53 -16 -101.5 -50t-60.5 -83q-2 -4 -2 -8v-8z" />
<glyph unicode="9" horiz-adv-x="819" d="M6 776q0 176 142.5 304t312.5 137h10h8q23 0 45.5 -3.5t42.5 -7.5q121 -27 188.5 -116t67.5 -203q0 -14 -1 -31.5t-5 -34.5q-16 -84 -48 -163.5t-73 -155.5q-74 -133 -168 -259t-198 -239h-285q109 106 207 219t180 238q-20 -4 -39.5 -6t-40.5 -2q-135 0 -240.5 85.5 t-105.5 237.5zM209 776q0 -61 43 -91t98 -30q14 0 29.5 2t30.5 7q80 20 145.5 83.5t65.5 145.5q0 45 -27 75.5t-72 39.5q-10 4 -21 4h-24q-10 0 -21.5 -1t-21.5 -3q-84 -16 -154.5 -82t-70.5 -150z" />
<glyph unicode=":" horiz-adv-x="313" d="M12 127q0 51 36 86t85 35q51 0 87 -35t36 -86t-36 -87t-87 -36q-49 0 -85 36t-36 87zM94 455q0 51 36 85.5t85 34.5q51 0 87 -34.5t36 -86t-36 -87t-87 -35.5q-49 0 -85 36t-36 87z" />
<glyph unicode=";" horiz-adv-x="352" d="M14 -61l80 92v1l-1 2l-1 1q-20 18 -30.5 42.5t-10.5 51.5q0 23 6 42t21 36q18 20 42.5 30.5t51.5 10.5h9q5 0 12 -2q14 -2 29.5 -9.5t27.5 -17.5q23 -18 33 -42.5t10 -51.5v-9q0 -5 -2 -12q-2 -14 -9.5 -29.5t-17.5 -27.5l-160 -186zM94 455q0 51 36 85.5t85 34.5 q51 0 87 -34.5t36 -86t-36 -87t-87 -35.5q-49 0 -85 36t-36 87z" />
<glyph unicode="&#x3c;" />
<glyph unicode="=" />
<glyph unicode="&#x3e;" />
<glyph unicode="?" horiz-adv-x="710" d="M14 932q0 12 1 23.5t3 23.5t5.5 23.5l7.5 23.5q33 88 108.5 138t167.5 50h135h136q94 0 168.5 -47t74.5 -149q0 -100 -56 -171t-124 -134q-6 -4 -12 -10.5t-13 -10.5l-5 -5l-5 -5q-10 -8 -19 -17.5t-20 -17.5l-20 -19.5t-21 -17.5q-51 -49 -91 -94t-50 -76l-27 -80h-204 q4 12 7 25.5t7 28.5q6 27 13 52.5t12 37.5q10 31 29.5 63.5t45.5 65.5q31 37 68 74l74 71q14 14 29.5 27.5t29.5 28.5l85 78q38 36 44 51q8 14 12 25t6 22q-6 2 -15 2h-23h-136h-135q-41 0 -65.5 -23.5t-24.5 -56.5q0 -4 1 -9t1 -10q4 -14 13.5 -27.5t23.5 -25.5l-129 -158 q-53 45 -83 106t-30 124zM72 4l65 205h215l-67 -205h-213z" />
<glyph unicode="@" horiz-adv-x="1640" d="M0 694l485 160l39 139l146 -16l-19 -70l160 56l68 223l159 28l-59 -194l164 57l20 -145l-235 -82l-99 -315q23 16 48.5 29.5t50.5 19.5q10 2 18 3t17 1h6h6q2 0 5 -1t5 -1q43 -6 62.5 -40t19.5 -79q0 -23 -6 -51.5t-17 -61.5q-4 -12 -7 -23.5t-7 -23.5q-2 -12 -5 -23.5 t-7 -23.5l76 16q0 14 2 28.5t6 29.5l12 44q6 22 14 42q31 82 79 140t102 93q20 12 39.5 22.5t37.5 16.5q20 8 40 11.5t40 3.5q49 0 84 -26t35 -79q0 -12 -3 -26.5t-7 -30.5q-14 -39 -51 -91.5t-107 -117.5l209 43l-47 -160l-336 -65q-8 -2 -17 -3t-20 -1q-27 0 -51.5 11 t-40.5 34l-22 -70l-109 -23q-8 -2 -14 -2h-13q-45 0 -72.5 29t-25.5 74q0 10 2 21l4 24q4 14 9.5 29.5l11.5 31.5q2 8 4 14.5t4 14.5q8 23 14 45.5t8 42.5q-43 -27 -82.5 -74t-68.5 -98q-16 -27 -28.5 -53.5t-20.5 -48.5l-35 -109l-160 -29l240 781l-158 -56l-276 -968 l-146 16l256 899l-418 -137zM1268 389q72 57 108.5 98t50.5 68q-49 -12 -88 -53t-61 -88q-2 -6 -5 -12.5t-5 -12.5z" />
<glyph unicode="A" horiz-adv-x="1165" d="M-6 299l65 205h199q39 143 106.5 265t149.5 214q63 70 132 120t140 79q41 16 82 25.5t80 9.5q115 0 187.5 -49.5t99.5 -163.5q6 -25 9 -53.5t3 -59.5q0 -78 -20.5 -180.5t-61.5 -231.5l-155 -473h-213l96 293h-459q-1 -15 -1 -29q0 -22 2 -45q3 -37 7 -75q4 -29 12 -60 l13 -59l20 -70l21 -70q2 -10 5 -19t5 -17l-194 -60l-44 159q-22 81 -36 163l-7.5 45t-5.5 47q-2 23 -3 45t-1 45h-233zM467 504h491l13 37q41 121 58.5 208t17.5 148q0 16 -1.5 31.5t-5.5 27.5q-8 31 -31.5 44.5t-60.5 13.5q-41 0 -89 -20.5t-97 -57.5q-25 -18 -48.5 -41 t-47.5 -49q-70 -76 -120 -162t-79 -180z" />
<glyph unicode="B" horiz-adv-x="880" d="M-2 6l65 203h539l-61 144l-62 145l58 69l57 72l55 70l58 69q41 49 68.5 96.5t39.5 86.5q6 16 9 29.5t3 25.5q0 16 -13 26.5t-42 12.5h-7q-29 0 -62 -15q-36 -16 -72 -49q-16 -12 -30.5 -26.5l-29.5 -30.5q-59 -63 -110 -154.5t-86 -197.5q-23 -70 -38 -147t-20 -154h-202 q4 94 21.5 185t45.5 179q41 127 102.5 235.5t135.5 190.5q68 76 159 131t191 55q23 0 47.5 -4t48.5 -12q66 -20 109 -67.5t51 -118.5q2 -10 2 -22v-21q0 -109 -63.5 -214.5t-139.5 -197.5q-29 -37 -58.5 -70.5t-53.5 -64.5q23 -47 43 -96l41 -99q10 -20 14 -44.5t4 -49.5 q0 -66 -39 -118t-117 -52h-661z" />
<glyph unicode="C" horiz-adv-x="931" d="M2 334q0 12 1 24.5t1 24.5q18 188 144 367.5t276 304.5l44 36l44 33q6 4 11 8.5t12 6.5q57 39 125.5 73.5t140.5 47.5q18 4 38.5 6t39.5 2q45 0 87 -12.5t81 -41.5q45 -33 63 -73.5t18 -87.5q0 -14 -2 -30.5t-6 -31.5q-10 -47 -32.5 -93t-47.5 -85q-31 -47 -71.5 -97 t-87.5 -100q-68 -74 -148 -144.5t-162 -133.5l-5 -5q-3 -3 -7 -5l-123 159q68 51 132.5 108.5t121.5 115.5q55 55 100.5 108t77.5 103q4 4 12.5 17t16.5 32l4 8l4 8q10 18 16.5 35.5t6.5 26.5v2l-2 2q-12 10 -25.5 13t-30.5 3q-20 0 -41.5 -5t-42.5 -13l-44 -21 q-22 -10 -42 -22l-41 -27l-30 -20q-29 -20 -60.5 -46t-62.5 -57q-88 -82 -166 -186.5t-113 -214.5q-10 -31 -15 -61.5t-5 -61.5q0 -53 21.5 -89t78.5 -36h131h150h149h131l-65 -203h-114h-132h-135h-115q-143 0 -224 95.5t-81 232.5z" />
<glyph unicode="D" horiz-adv-x="1171" d="M0 6l258 791h213l-188 -580q119 16 222 65.5t197 120.5l77 64q48 41 100 92q41 41 80.5 87t70.5 93q27 43 42 84t15 80q0 27 -8 50.5t-28 43.5v2q-20 23 -59.5 33t-92.5 10q-33 0 -67.5 -4t-73.5 -10q-123 -20 -264.5 -68.5t-286.5 -115.5l-56 -25q-28 -12 -55 -26 l-88 184l71 33l73 32q150 63 296 112.5t275 72.5q41 8 84 12t88 4h7h7q88 -2 171 -30.5t139 -100.5q35 -43 50 -92t15 -105q0 -96 -49 -202.5t-139 -214.5q-53 -66 -121 -129.5t-148 -124.5q-74 -55 -143.5 -96.5t-138.5 -69.5l-27.5 -11.5t-28.5 -9.5q-45 -16 -91 -25 t-91 -16q-68 -8 -136.5 -9t-137.5 -1h-17h-16z" />
<glyph unicode="E" horiz-adv-x="1124" d="M0 184q0 14 3 28.5t7 29.5q12 35 37 68.5t64 62.5l68 50l69 52l68 52l69 51q-2 6 -6 11t-6 9t-5 8l-6 8q-27 43 -48 88.5t-23 98.5q0 150 144.5 271.5t318.5 166.5q41 12 82 17.5t79 5.5q53 0 101.5 -11.5t87.5 -36.5q33 -20 55.5 -46.5t34.5 -61.5q6 -18 9 -35.5 t3 -34.5q0 -90 -68.5 -169t-150.5 -142l-84 -61l-72 -52l-124 162l50 35q44 31 95 72l19 15l20 15q45 37 76.5 70t31.5 51q0 4 -1 7t-5 5q-16 10 -35.5 14.5t-42.5 4.5q-16 0 -32.5 -2t-34.5 -6q-31 -6 -61.5 -16.5t-55.5 -20.5q-10 -4 -20 -9l-19 -10q-12 -6 -39 -23 l-55 -38q-20 -16 -39.5 -33.5t-34.5 -36.5q-12 -16 -20 -32.5t-8 -30.5q0 -6 1 -11.5t3 -9.5l-2 4l151 -266l-70 -52l-71 -52l-139 -104l-140 -105h854l-65 -203h-394h-397q-109 0 -168 53t-59 125z" />
<glyph unicode="F" horiz-adv-x="1038" d="M4 1010q0 90 73 148.5t265 58.5h924l-66 -203h-188l-140 -430h193l-66 -205h-192l-133 -406l-238 -73l158 479h-166l66 205h165l140 430h-549q-23 0 -33 -7.5t-10 -17.5q0 -14 12 -34.5t31 -41.5q6 -6 11 -13t11 -13l39 -41q18 -18 25 -27l-156 -127l-25 30 q-13 15 -26 32q-47 55 -86 119.5t-39 136.5z" />
<glyph unicode="G" horiz-adv-x="1058" d="M2 265v24v20q0 10 2 23q16 184 142 359t276 302q47 41 93 76t89 61q4 2 8 5.5t9 5.5q55 35 120.5 65.5t132.5 44.5l44.5 7.5t44.5 3.5q45 0 87 -12.5t78 -41.5q45 -33 63.5 -73.5t18.5 -85.5q0 -14 -2 -28.5t-4 -31.5q-8 -37 -24.5 -72.5t-36.5 -68.5 q-39 -66 -100.5 -137.5t-141.5 -143.5l-46 -41l-48 -41l-129 156q10 8 19.5 16.5t19.5 16.5q86 74 150.5 145.5t101.5 132.5l7 15l11 22l3 6q1 2 1 4l11 27q5 12 6 18v3l-2 2q-8 8 -20.5 11t-29.5 3q-20 0 -44.5 -6t-51.5 -19q-18 -6 -36.5 -15t-35.5 -19l-43 -25 q-20 -12 -32 -21q-29 -16 -58 -36l-57 -43q-123 -98 -233.5 -231.5t-147.5 -276.5q-4 -14 -7 -35t-5 -41v-8v-8q0 -39 14 -73t53 -44q20 -4 40 -7t38 -3q106 0 199.5 59t173.5 129q2 4 5 7t7 5l18 46l17 46l191 -71q-94 -248 -210 -489.5t-282 -452.5l-160 123 q82 104 149.5 217.5t125.5 230.5q-55 -23 -113 -37q-50 -13 -103 -12h-16q-33 0 -64.5 3t-66.5 13q-84 20 -139 82t-72 148l-4 23q-2 11 -2 22q-2 10 -2 21z" />
<glyph unicode="H" horiz-adv-x="972" d="M6 379l66 205h178l205 633h213l-205 -633h291l239 731h213l-471 -1440h-213l166 504h-291l-123 -373h-213l123 373h-178z" />
<glyph unicode="I" horiz-adv-x="960" d="M2 6l66 203h105h106h104h104q8 0 16.5 1t16.5 3q55 12 105.5 56t66.5 96l53 164l54 165l53 165l53 165q2 4 3 9t1 7q-8 4 -15 4h-17q-16 0 -36 -5t-38 -11q-23 -10 -44.5 -21.5t-39.5 -23.5q-18 -10 -32.5 -21.5t-27.5 -19.5l-37 -28q-22 -15 -42 -33 q-49 -41 -91.5 -94.5t-42.5 -112.5q0 -14 3.5 -27.5t9.5 -28.5q12 -29 30.5 -55l38.5 -53q0 -2 2 -4l5 -4q6 -10 13 -19.5t13 -19.5l-172 -111l-20 31l-21 29l-39.5 59.5t-36.5 65.5q-14 35 -21 69.5t-7 69.5q0 80 35.5 155.5t95.5 133.5q23 23 49 46l55 48q66 53 141.5 101 t153.5 71q29 10 56.5 14t54.5 4q37 0 71.5 -9t67.5 -32q47 -31 67.5 -74.5t20.5 -91.5q0 -20 -4 -39.5t-10 -39.5l-107 -331l-106 -329q-39 -123 -154 -210t-244 -87h-485z" />
<glyph unicode="J" horiz-adv-x="1015" d="M4 -403q0 47 23.5 93t52.5 85l16 20l15 19q18 23 40.5 47t49.5 49q53 53 114.5 102t124.5 90q39 25 77 44.5t75 33.5l68 210l69 212l69 212l68 210q2 4 3 9t1 7q-8 4 -15 4h-17q-16 0 -36 -4t-38 -12q-20 -8 -42 -20l-42 -25q-16 -10 -31.5 -21.5t-27.5 -19.5 q-18 -12 -39 -29l-43 -34q-49 -41 -91 -94.5t-42 -112.5q0 -12 3 -25.5t9 -28.5q14 -27 31.5 -53l35.5 -51q2 -4 5 -7l6 -5q6 -10 13 -19.5t13 -19.5l-170 -111l-17 24.5l-18 24.5q-2 2 -4 5.5t-4 5.5l-39.5 59.5t-36.5 65.5q-14 35 -21 69.5t-7 69.5q0 80 35.5 155.5 t95.5 133.5q23 23 49 46l55 48q66 53 141.5 101t153.5 71q29 10 56.5 14t54.5 4q37 0 71.5 -9t67.5 -32q47 -31 67.5 -73.5t20.5 -90.5q0 -10 -1 -20t-3 -20q0 -10 -3 -20.5t-7 -20.5l-123 -377l-123 -377h193l-66 -203h-192q-6 -14 -11.5 -31.5t-9.5 -33.5l-4 -13l-4 -12 q-31 -104 -72 -202.5t-135 -168.5q-29 -23 -57.5 -38t-57.5 -25q-55 -18 -111.5 -21.5t-121.5 -3.5h-4h-4q-51 0 -86 20.5t-52 57.5q-8 14 -11 30t-3 32zM248 -340q74 0 138.5 43t86.5 115l8 23l8 22q2 10 7 21l8 24v-2q-70 -51 -136.5 -113.5t-119.5 -132.5z" />
<glyph unicode="K" horiz-adv-x="1083" d="M4 6l393 1211h213l-393 -1211h-213zM379 453q0 29 16.5 60.5t55.5 70.5l630 633h287l-764 -766l352 -445h-260l-258 326v2q-2 0 -2 2q-2 2 -4 5t-6 7q-16 23 -31.5 48.5t-15.5 56.5z" />
<glyph unicode="L" horiz-adv-x="1001" d="M2 96q51 33 90 68t51 72l51 153l50 154l49 152l49 153q41 125 123 208t170 126q23 10 45 17l43 13q23 6 44 8.5t42 2.5q98 0 161 -54q60 -52 60 -137q0 -40 -10 -78.5t-33 -79.5l-192 -352l-179 96l50 90q25 44 47 89l48 87l48 89q10 16 15 27.5t3 15.5q0 4 -3 6t-9 2 q-8 0 -18.5 -2t-26.5 -6q-12 -2 -26.5 -7t-26.5 -12q-55 -27 -105.5 -80t-76.5 -133l-187 -575h594l-65 -203h-658q-33 -29 -71.5 -55.5t-79.5 -50.5z" />
<glyph unicode="M" horiz-adv-x="1579" d="M-2 6l96 126l99 134l99 142l99 143l175 265l159 249l45 71l51 81h223l-174 -699l30 42l30 42l32 42l29 42l184 258l195 273h242q-8 -16 -15.5 -34t-17.5 -36q0 -2 -1 -3t-1 -3l-35 -75q-16 -36 -29 -58l-30 -65q-16 -34 -31 -71q-18 -35 -34 -72l-32 -75 q-43 -104 -73.5 -205.5t-30.5 -179.5q0 -57 32 -94t113 -39h101l-66 -201h-35q-193 0 -271 92q-77 90 -77 234q0 42 4 79q4 36 13 72l-166 -231l-178 -246h-217l153 621l-208 -314q-108 -156 -226 -307h-256z" />
<glyph unicode="N" horiz-adv-x="1300" d="M8 6l78 107l82 118l41 63l41 62l67 109l62 104l115 205l112 209l62 118l59 116h207q-4 -39 -10 -87l-13 -94q0 -4 -1 -10t-1 -10q-8 -53 -14 -103.5t-12 -89.5q-6 -43 -11.5 -87l-11.5 -89l-20 -175l-19 -171q76 102 145.5 216t129.5 233q61 121 114.5 240.5t96.5 226.5 h223l-50 -119l-57 -129l-12 -29l-12 -27l-64 -137l-57 -119q-72 -137 -154 -270t-174 -250q-6 -8 -12 -15t-12 -16q-35 -37 -79 -69.5t-95 -32.5q-8 0 -16.5 1t-18.5 3q-59 16 -82 64.5t-25 101.5q-2 10 -1 21.5t1 21.5q8 96 19.5 204.5t25.5 223.5l-49 -90l-51 -88 l-147 -242q-74 -117 -148 -219h-252z" />
<glyph unicode="O" horiz-adv-x="1263" d="M6 520q0 268 206 482.5t478 214.5q164 0 294 -91.5t183 -246.5h322l-66 -203h-229q-10 -260 -213 -465t-465 -205q-25 0 -49.5 2t-48.5 6q-186 33 -299 176.5t-113 329.5zM209 520q0 -133 84 -222t219 -89q182 0 324.5 143.5t154.5 323.5h-13h-13q-59 0 -112.5 8 t-92.5 66q-16 25 -24.5 49t-8.5 47q0 33 10.5 65.5l22.5 67.5l4 12l4 13q-20 4 -39.5 7t-38.5 3q-190 0 -335.5 -154t-145.5 -340z" />
<glyph unicode="P" horiz-adv-x="1202" d="M-2 6l8 12l8 13l3 6q1 2 3 4l28 47q13 23 22 35l29 51l30 53q35 59 68 124l63 130q35 76 65.5 151t53.5 142l10 40l17 69q2 2 2 5v5l18 83l8 38h-63h-64h-65h-64l66 203h123q109 0 187 -42q75 -40 75 -183v-15v-9v-10q-2 -12 -4 -26t-4 -31l50 56l56 61q78 78 172 143.5 t195 65.5h11q5 0 9 -2q4 0 9 -1t12 -1q104 -18 141 -95t39 -165v-5v-4q0 -18 -1 -36.5t-3 -34.5q-4 -39 -13.5 -80l-19.5 -82q-49 -172 -163 -315.5t-304 -143.5h-66h-65h-66h-65l65 205h40h38h56h63q94 0 168 98.5t111 216.5q12 41 18 81t6 77q0 23 -2 43.5t-8 36.5 q-2 4 -4 5t-6 1q-8 0 -21.5 -5t-28.5 -13l-9 -4.5l-9 -4.5l-29 -17q-12 -7 -14 -9q-195 -160 -345.5 -365t-283.5 -418l-47 -72l-45 -73l-12 -19.5l-12 -19.5h-240z" />
<glyph unicode="Q" horiz-adv-x="1183" d="M12 666q2 199 196.5 357.5t428.5 217.5q57 16 112.5 23.5t108.5 7.5q133 0 237.5 -54.5t143.5 -177.5q4 -8 6 -18t4 -18q0 -10 1 -19.5t1 -19.5q0 -14 -1 -28.5t-5 -29.5q-14 -80 -62 -157.5t-102 -143.5q-18 -18 -33.5 -36.5t-31.5 -34.5h137l-68 -203h-282 q-37 -33 -76 -63.5t-80 -59.5h541l-66 -203h-839q-49 0 -94.5 -25.5t-82.5 -64.5q-27 43 -40 80t-13 70q0 70 53.5 106.5t129.5 36.5l116.5 59.5t112.5 63.5h-12h-13q-133 2 -251.5 47t-161.5 192q-8 25 -11.5 48.5t-3.5 46.5zM217 662q0 -63 51 -95t121 -32h169h169 l63.5 60t90.5 93l37 42l34 42q41 51 69 100.5t28 85.5v12q0 5 -2 9q-16 53 -67.5 72.5t-111.5 19.5h-16q-8 0 -16 -2q-37 -2 -73 -8t-67 -14q-12 -2 -23 -6.5t-22 -6.5l-74 -27q-40 -15 -83 -36q-88 -45 -165 -108.5t-104 -145.5q-4 -14 -7 -28.5t-1 -26.5z" />
<glyph unicode="R" horiz-adv-x="1404" d="M6 6q96 158 188.5 327t161.5 341l24 57l21 57q23 61 38.5 112.5t17.5 90.5q0 12 -5.5 17.5t-23.5 5.5h-213l66 203h118q109 0 189 -41q71 -36 71 -163q0 -16 -2 -34q0 -25 -5 -50.5t-13 -56.5l63 58q35 31 76 61q72 53 155 103.5t169 81.5q45 14 90 23t88 9 q53 0 102.5 -15t90.5 -52q45 -37 63 -84t18 -99q0 -12 -1 -23t-3 -22q-8 -53 -28.5 -103t-48.5 -93q-82 -131 -213.5 -216t-276.5 -130q33 -33 60.5 -74t48.5 -88h231l-68 -203h-297l-4 11.5l-4 11.5q-49 117 -117.5 199.5t-240.5 86.5l65 205q29 2 58.5 5t58.5 7 q156 25 299.5 90.5t229.5 202.5q4 6 8 13.5l8 15.5q6 10 11 21.5t11 21.5q6 14 9.5 27.5t3.5 25.5q-2 20 -14.5 34.5t-43.5 16.5q-8 1 -16 1q-46 0 -106 -19q-72 -23 -166 -78q-203 -123 -359.5 -314.5t-292.5 -395.5l-60 -95l-60 -94h-230z" />
<glyph unicode="S" horiz-adv-x="1075" d="M2 6l66 203h267h267q31 0 54.5 24.5t25.5 55.5l-62 69l-65 70l-65 70l-64 69q-39 41 -56.5 91.5t-17.5 101.5q4 133 105.5 228t222.5 155q41 20 80 37l76 30q37 14 82 25.5t90 15.5h13h13q53 0 99.5 -19.5t76.5 -68.5q16 -25 22.5 -52.5t6.5 -55.5q0 -8 -1 -18.5 t-1 -18.5q-8 -51 -30.5 -100.5t-49.5 -88.5l-93 -130l-93 -130l-166 117l93 131l93 129q8 10 15 22l12 23q6 14 11 29.5t7 28.5q-20 2 -52 -5.5t-79 -25.5l-56 -22q-30 -11 -61 -25q-23 -10 -44 -21.5l-42 -23.5l-28 -20q-16 -11 -33 -25q-29 -23 -52.5 -51.5t-29.5 -57.5 q-2 -6 -2 -10v-8q0 -12 5 -24.5t16 -24.5l132 -145l132 -144q20 -20 29.5 -47t13.5 -56v-9v-9q0 -31 -6.5 -59.5t-18.5 -55.5q-33 -78 -101.5 -126t-156.5 -48h-600z" />
<glyph unicode="T" horiz-adv-x="931" d="M6 1069l653 86l54 176l194 -59l-26 -86l217 28l26 -200l-309 -41l-301 -998l-195 58l275 911l-561 -76z" />
<glyph unicode="U" horiz-adv-x="1026" d="M10 303q0 123 38 243t83 236l29 73q14 36 26 73q14 41 20.5 62.5t6.5 29.5q0 4 -1 7t-5 3q-20 8 -43 12l-45 9q-4 2 -7 2t-8 2l-28 4q-14 2 -29 6l41 197q14 -2 28.5 -5.5t28.5 -5.5q4 0 9.5 -1t9.5 -1q27 -4 55.5 -10t54.5 -16q82 -29 113 -78t31 -109q0 -31 -6 -62.5 t-17 -64.5l-16 -46l-17 -48q-6 -12 -11 -24.5t-9 -24.5q-8 -23 -18 -48l-21 -52l-21 -62l-22 -63q-20 -63 -33.5 -125t-13.5 -113q0 -41 17.5 -67.5t62.5 -26.5q143 0 259 193.5t222 424.5q4 10 9 19.5l10 19.5q4 8 7 15.5t7 13.5l20 44q10 22 19 44q16 39 28.5 78t22.5 78 q2 2 3 5t1 5q4 16 9 33.5t12 34.5h272l-40 -74l-40 -76l-12 -21q-6 -11 -10 -22q-16 -27 -30.5 -55.5t-25.5 -57.5l-59 -176l-57 -174q-8 -31 -18 -59l-19 -60l-37 -115l-37 -118h201l-60 -203h-170q-63 0 -112.5 41t-63.5 100q-68 -66 -144.5 -103.5t-166.5 -37.5 q-158 0 -220.5 83t-62.5 214z" />
<glyph unicode="V" horiz-adv-x="782" d="M8 102q-2 42 -2 86q0 54 3 111q5 102 16 207q10 113 26.5 224.5t34.5 213.5l25 145l22 128h205q-4 -18 -7 -37t-7 -37l-71 -425q-34 -212 -42 -425q166 203 307 423l277 445q8 12 16 27l16 29h232q-4 -6 -7 -13l-8 -14l-37 -67q-17 -32 -26 -44l-40 -65l-38 -66 l-292 -459q-153 -229 -347 -450q-20 -23 -49 -34t-59 -15h-6h-9q-51 0 -90 27.5t-43 84.5z" />
<glyph unicode="W" horiz-adv-x="1345" d="M4 102q-2 47 -2 96.5t2 100.5q4 102 14 207q12 115 27.5 227.5t34.5 214.5q12 76 24 144l23 125h209q-4 -18 -7 -36t-5 -36l-15.5 -79l-15.5 -79q-31 -174 -56.5 -346t-31.5 -348l84 103q41 52 80 108q0 -4 37 49l79 121q2 0 3 2l1 2l65 96q30 45 42 66l8 53l8 51l27 145 l23 128h202l-23 -132q-13 -74 -26 -157l-16 -104l-17 -107q-16 -115 -27.5 -225.5t-15.5 -198.5q166 203 308 423l276 445q8 12 16 27l17 29h233l-136 -227l-146 -236q-121 -193 -252 -379.5t-262 -335.5q-20 -23 -49 -34t-60 -15h-6h-8q-51 0 -90 27.5t-43 84.5 q-1 36 -1 72.5t1 73.5q2 74 6 149q-66 -92 -137.5 -182t-147.5 -176q-20 -23 -49 -34t-59 -15h-7h-8q-49 0 -89 27.5t-42 84.5z" />
<glyph unicode="X" horiz-adv-x="1286" d="M0 6q88 127 182 248l189 231l131 146l129 131l-197 455h221l136 -314q74 59 146.5 109.5t145.5 89.5q74 41 147 70.5t146 48.5l51 -197q-135 -35 -273 -115t-280 -200l306 -703h-222l-241 557q-119 -119 -234.5 -259t-230.5 -298h-252z" />
<glyph unicode="Y" horiz-adv-x="929" d="M12 293q0 33 3 67.5t10 67.5q8 55 20 109l25 102l22 74l19 61q4 8 12 37l18 66q2 6 4 13t5 15q10 39 17 73t7 50v5q0 1 -2 3q-8 4 -45 4t-96 -4l-11 203q49 3 92 3q36 0 67 -2q69 -5 120 -46q41 -33 56.5 -78t15.5 -98q0 -23 -2 -46.5t-7 -45.5q-6 -33 -15 -67l-17 -64 l-13 -40l-12 -38q-4 -12 -16 -55l-29 -101q-6 -23 -11 -47.5t-11 -48.5q-10 -45 -16.5 -88t-6.5 -78q0 -39 10.5 -64.5t36.5 -25.5q125 0 231.5 149.5t194.5 350.5q10 23 18 49l15 57q6 23 11 46.5t11 47.5q4 6 7 15l4 16q20 70 43 138l47 139h317l-110 -216l-105 -219 q-4 -10 -9 -20t-11 -19l-4 -8l-4 -8l-19.5 -40.5t-17.5 -43.5l-70.5 -241t-118.5 -369l-28 -82q-14 -41 -31 -80q-45 -113 -92 -214t-97 -175q-10 -16 -22 -32.5t-25 -31.5l-151 131q31 37 63.5 97.5t67.5 136.5l33 79l32 83l27.5 67.5t24.5 69.5q-51 -37 -108.5 -56.5 t-123.5 -19.5q-145 0 -197.5 84t-52.5 203z" />
<glyph unicode="Z" horiz-adv-x="1222" d="M0 -293q0 133 185.5 235.5t408.5 172.5q2 0 3 1t3 1l-16 42l-17 42l-16 42l-16 42l82 92l85 90l18 17q9 9 17 20l193 210q94 108 168 224q10 16 15 30.5t5 28.5q0 20 -13 38t-42 26q-20 6 -41 9t-43 3q-57 0 -119.5 -17.5t-126.5 -43.5q-66 -27 -129 -62t-121 -71 q-68 -43 -122 -82l-91 -68l-125 160l76 56q41 30 88 61q100 66 219 127t242 96q59 16 116.5 25.5t112.5 9.5q66 0 127.5 -14.5t116.5 -47.5q47 -29 67.5 -75t20.5 -99q0 -10 -1 -22.5t-3 -22.5q-6 -43 -21.5 -83t-35.5 -71q-76 -121 -170 -227l-193 -209l-4 -4l-4 -4 l-65 -71l-66 -70q6 -18 13 -37t16 -35q117 31 209 49.5t131 24.5l30 -201l-125 -21q-88 -15 -198 -38q0 -4 1 -9.5t1 -11.5v-9v-9q-2 -178 -143.5 -305t-311.5 -158q-25 -6 -49.5 -8t-48.5 -2h-9h-12q-94 6 -176 59t-96 152v12v10zM199 -274v-5q0 -2 2 -4l1 -2q1 -2 1 -4 q6 -12 20.5 -19t30.5 -9q10 -2 20.5 -3.5t18.5 -1.5q23 0 47.5 3.5t48.5 11.5q90 25 165 88t83 156v-3q-20 -4 -82.5 -21t-132.5 -44q-68 -25 -128.5 -54.5t-82.5 -60.5q-6 -6 -9 -13t-3 -15z" />
<glyph unicode="[" />
<glyph unicode="\" />
<glyph unicode="]" />
<glyph unicode="^" />
<glyph unicode="_" />
<glyph unicode="`" horiz-adv-x="698" d="M96 1155l51 150l449 -152l-51 -149z" />
<glyph unicode="a" horiz-adv-x="751" d="M4 215q0 53 20.5 103.5t53.5 93.5q102 137 254.5 193.5t316.5 60.5h14h15v-203q-66 0 -130.5 -8.5t-123.5 -30.5q-53 -18 -100.5 -51t-81.5 -80q-2 -4 -6.5 -10.5t-8.5 -14.5q-4 -6 -7 -12l-7 -14q-2 -6 -4 -14.5t-2 -14.5q0 -8 6 -15.5t20 -7.5q80 0 119 53.5t62 116.5 l8 27l8 25l193 -64l-45 -141h219l-66 -203h-199q-33 0 -59.5 10.5t-48.5 26.5q-31 -18 -66.5 -30.5t-70.5 -16.5q-12 -2 -24.5 -3t-24.5 -1q-63 0 -120 28.5t-89 92.5q-12 27 -18.5 52t-6.5 52z" />
<glyph unicode="b" horiz-adv-x="694" d="M9 286q1 13 3 27t5 27.5t8 26.5l290 897h213l-311 -961q-2 -6 -3 -11t-3 -11q0 -6 -1 -12.5t-1 -12.5q0 -20 10 -34.5t35 -14.5q51 0 98 39t72 86q6 8 10 17t6 18q4 10 5 19t1 17q0 16 -4 32t-10 30q-2 4 -3 7t-3 7q-8 18 -14 38t-6 44q0 12 2 24.5t6 26.5l16 56l193 -62 l-5 -16h216l-66 -205h-119q-2 -20 -6 -40.5t-10 -41.5q-37 -113 -143.5 -207t-233.5 -94q-20 0 -40.5 4t-43.5 10q-84 29 -125 97q-39 64 -39 140q0 18 1 33z" />
<glyph unicode="c" horiz-adv-x="700" d="M10 209q0 51 15.5 100t35.5 92q0 2 1 3.5t1 3.5q55 106 167 194t237 88h7h7q2 -2 6 -2h9q78 -8 127 -57t49 -125v-6v-6q0 -4 -1 -7.5t-1 -7.5l-11 -90h-204l10 98q-59 -4 -112.5 -47t-86.5 -94l-11 -18q-5 -8 -9 -17q0 -2 -5 -13t-12 -28q-2 -2 -3 -5t-3 -5l-8 -28 q-4 -13 -4 -19q0 -2 1 -4t3 -2h522l-67 -203h-455q-57 0 -106.5 25.5t-75.5 76.5q-12 25 -17.5 50.5t-5.5 52.5z" />
<glyph unicode="d" horiz-adv-x="786" d="M2 250q0 14 1 27.5t3 25.5q4 27 12.5 54.5t18.5 52.5q45 100 140 177t226 77h125l195 600h213l-311 -961l-5 -20q-3 -12 -4 -25q0 -8 2.5 -15t6.5 -16q6 -8 16 -12t21 -6q4 -2 8 -2h8h133l-66 -203h-67q-57 0 -110.5 21.5t-92.5 66.5q-45 -37 -96 -59.5t-103 -26.5 q-8 -2 -15 -2h-15q-127 0 -185.5 74t-58.5 172zM203 264q0 -6 -1 -11q0 -19 6 -31q7 -15 38 -15h7h7q51 6 96 46t64 87q2 4 3 8t3 8l37 107h-60q-72 0 -128 -57.5t-70 -124.5q0 -4 -1 -8.5t-1 -8.5z" />
<glyph unicode="e" horiz-adv-x="700" d="M4 203q0 6 1 13t1 15q4 41 17.5 83t27.5 77q43 98 105.5 162.5t130.5 97.5q29 16 56.5 25.5t53.5 13.5q12 2 24.5 3t27.5 1q84 0 149.5 -47t65.5 -131q0 -16 -3.5 -33.5t-11.5 -38.5q-16 -51 -67.5 -111.5t-143.5 -125.5h283l-68 -203h-446q-55 0 -103.5 23.5t-74.5 72.5 q-12 23 -18.5 49.5t-6.5 53.5zM240 315q94 55 144 101.5t69 79.5q-74 -4 -129.5 -57.5t-81.5 -116.5q0 -2 -1 -3.5t-1 -3.5z" />
<glyph unicode="f" horiz-adv-x="772" d="M-27 -360q0 39 8.5 84t22.5 96l209 643h-178l82 205h162l192 596h215l-192 -596h305l-66 -205h-119q53 -80 80 -175q25 -88 25 -183v-15v-24q0 -12 -2 -25q-10 -184 -102.5 -353t-249.5 -253q-33 -18 -69 -29.5t-73 -15.5q-8 -2 -15 -2h-15q-49 0 -93.5 19.5t-79.5 64.5 v-4q-20 35 -33.5 77t-13.5 95zM172 -362q0 -20 8 -33t29 -13q10 0 25.5 5.5t35.5 15.5q104 57 169 180t75 256q2 10 2 22v23q0 72 -17.5 138.5t-56.5 119.5q-8 12 -17 23.5t-19 19.5l-104 -318l-103 -319q-2 -4 -3 -7t-1 -7q-4 -8 -6.5 -17.5l-4.5 -17.5q-6 -18 -9 -36.5 t-3 -34.5z" />
<glyph unicode="g" horiz-adv-x="727" d="M-16 -385q8 2 13 2t11 2q113 8 214.5 93t135.5 190l43 133q-18 -8 -36.5 -13.5t-36.5 -9.5q-20 -4 -39 -6t-37 -2q-63 0 -121.5 28.5t-91.5 86.5q-14 27 -20.5 53.5t-6.5 52.5q0 41 13.5 82t33.5 78q84 143 226.5 200.5t298.5 71.5q39 4 78.5 5.5t78.5 1.5v-201 q-43 0 -92 -2t-98 -8q-94 -12 -181 -50t-134 -118q-2 -4 -4.5 -7.5t-4.5 -7.5q-6 -10 -10 -20t-2 -19q0 -10 8 -17t29 -7q20 0 40.5 5t43.5 13q61 25 116.5 77t71.5 110q0 2 1 3t1 3l2 6l195 -57l-172 -531q-57 -170 -220 -295t-345 -125z" />
<glyph unicode="h" horiz-adv-x="802" d="M0 4l410 1260h213l-207 -639q25 14 51.5 23t52.5 16q8 0 17.5 1t17.5 1q16 0 33.5 -3.5t32.5 -9.5q59 -20 85.5 -71.5t26.5 -110.5q0 -31 -7 -67.5t-24 -77.5q-4 -14 -9 -29.5t-9 -30.5q-4 -14 -9 -29.5t-9 -29.5h165l-65 -203h-145q-76 0 -123 50t-47 118q0 8 1 15.5 t1 15.5q2 6 4 13t4 15q6 20 14 42t14 44q4 8 7.5 16.5t5.5 14.5q10 29 17 55.5t11 51.5q-61 -25 -117.5 -82.5t-97.5 -122.5q-18 -27 -32.5 -54.5t-24.5 -52.5l-45 -139h-213z" />
<glyph unicode="i" horiz-adv-x="405" d="M6 172q0 8 1 15.5t1 15.5q2 6 4 13t4 15l140 437h215l-148 -461h203l-66 -203h-184q-76 0 -123 50t-47 118zM199 977q0 57 41 98t98 41q59 0 99 -41t40 -98t-40 -99t-99 -42q-57 0 -98 42t-41 99z" />
<glyph unicode="j" horiz-adv-x="751" d="M0 -297q8 2 15.5 2t15.5 2q111 12 209 96t133 187l98 307l-50.5 -19.5t-51.5 -17.5l-52 197q10 2 21.5 5t21.5 7q70 27 133.5 78t96.5 121h217l-242 -742q-55 -170 -216 -294t-341 -128h-4h-4v199zM602 977q0 57 41 98t98 41q59 0 99.5 -41t40.5 -98t-40 -99t-100 -42 q-57 0 -98 42t-41 99z" />
<glyph unicode="k" horiz-adv-x="724" d="M-2 4l408 1260h212l-243 -756l274 205l121 -164l-299 -221l51 -117q4 -2 11.5 -3t15.5 -1h151l-67 -203h-84h-5h-5q-59 2 -114.5 28.5t-82.5 88.5l-53 121l-78 -238h-213z" />
<glyph unicode="l" horiz-adv-x="423" d="M27 172q0 8 1 15.5t1 15.5q2 6 4 13t4 15l336 1033h213l-344 -1057h202l-65 -203h-182q-76 0 -123 50t-47 118z" />
<glyph unicode="m" horiz-adv-x="1220" d="M6 4l213 664h215l-16 -45q25 14 52.5 23t55.5 16q8 0 18.5 1t18.5 1q47 0 86 -20.5t66 -70.5q0 -2 2 -4q0 -2 1 -3l1 -1q53 43 110.5 72t114.5 29q16 0 33.5 -3.5t34.5 -9.5q61 -25 84.5 -73t23.5 -105q0 -39 -7 -76t-19 -71q-6 -14 -11.5 -29.5t-9.5 -30.5 q-4 -16 -9 -30.5t-9 -30.5h159l-65 -203h-139q-76 0 -123 49t-47 119q0 14 3 29.5t7 29.5l24 81q12 40 27 79l4 11.5t2 9.5l8 21q4 11 5 22q-18 -6 -40 -20.5t-44 -35.5q-57 -49 -108.5 -116.5t-80.5 -139.5q-12 -33 -22 -68l-21 -71h-215l15.5 50.5l15.5 51.5q8 27 17 52.5 t20 50.5q6 23 13 45l15 47l15.5 45.5l15.5 44.5q2 4 3 8t1 9q4 10 7 22t5 25q-16 -6 -38.5 -20.5t-44.5 -35.5q-57 -51 -109.5 -116.5t-77.5 -139.5l-45 -139h-211z" />
<glyph unicode="n" horiz-adv-x="827" d="M0 4l215 664h213l-14 -43q23 12 46 21t48 13q12 4 23.5 5.5t23.5 1.5q16 0 33.5 -3.5t32.5 -9.5q59 -20 85.5 -71.5t26.5 -110.5q0 -31 -7 -66.5t-21 -76.5q-6 -14 -11 -30l-8 -30q-2 -6 -4 -11t-2 -9q-4 -10 -6 -20.5t-6 -20.5h163l-67 -203h-141q-76 0 -123 49t-47 119 q0 14 3 29.5t7 29.5l8 28l8 26l17 53l16 53q2 4 3 8t1 9q4 10 7 22t5 25q-16 -6 -38.5 -20.5t-45.5 -35.5q-57 -49 -107 -116.5t-79 -139.5l-45 -139h-213z" />
<glyph unicode="o" horiz-adv-x="718" d="M6 307q0 145 106.5 259t256.5 114q90 0 160.5 -47t105.5 -125h184l-67 -209h-99q-27 -119 -126 -207t-226 -88h-11q-5 0 -11 2q-6 0 -11.5 1t-11.5 1q-113 16 -181.5 101t-68.5 198zM213 307q2 -37 23.5 -65.5t64.5 -28.5q41 0 77 26.5t56 63.5q-53 10 -91 51t-44 99 q-33 -20 -55.5 -54t-28.5 -71v-5v-6q-2 -2 -2 -5v-5z" />
<glyph unicode="p" horiz-adv-x="1026" d="M-133 -510l229 709q27 84 37 149.5t10 116.5q0 39 -4 70.5t-10 56.5q-2 8 -3 16t-3 15q-2 10 -3 13t-3 5l198 43q4 -10 4 -13v-3l5 -21q2 -10 4 -22q6 -23 10 -50.5t6 -60.5q66 63 146.5 107.5t168.5 44.5q23 0 45.5 -3.5t45.5 -11.5q82 -27 130 -94.5t48 -153.5 q0 -51 -17.5 -101t-46.5 -95h183l-66 -203h-608v203h133q14 0 28.5 3t28.5 7q61 23 111.5 75t50.5 111q0 33 -20.5 46.5t-49.5 13.5q-41 0 -92 -32t-104 -87q-4 -6 -10.5 -13l-12.5 -14q-59 -70 -114.5 -160.5t-90.5 -195.5l-172 -534z" />
<glyph unicode="q" horiz-adv-x="886" d="M14 217q0 43 13.5 85t31.5 81q61 127 186.5 192.5t262.5 86.5q49 6 97 8q16 1 32 0q31 0 61 -2l-14 -203q-28 2 -56 2q-51 0 -99 -7q-75 -11 -136 -36q-63 -27 -117.5 -81t-58.5 -128q4 -2 12 -2h17q72 0 118 50t74 112l13 35l192 -62l-45 -137h313l-67 -203h-70 q2 -12 3 -25.5t1 -27.5q0 -31 -4 -60.5t-10 -58.5l-8 -30l-8 -29q-10 -33 -26.5 -71t-37.5 -77q-51 -90 -127 -165.5t-170 -75.5q-14 0 -29.5 3t-31.5 7q-68 20 -98.5 75.5t-30.5 118.5q0 20 4 42t10 44l111 340q-16 -4 -36 -7t-40 -3q-63 0 -118.5 24.5t-86.5 82.5 q-14 25 -20.5 50t-6.5 52zM403 -391v-6q0 -5 3 -5q2 0 5 3q7 6 17 18q2 0 3 2l1 2q8 8 13.5 15.5t7.5 9.5q43 55 75.5 123.5t42.5 140.5q2 12 3 25.5t1 27.5v-2q0 16 -1 26.5t-3 18.5h-39l-31 -97l-32 -97l-32 -98l-31 -99q-3 -4 -3 -8z" />
<glyph unicode="r" horiz-adv-x="706" d="M4 406l113 352l194 -64l-10 -26h404v-205h-78q-12 -8 -37 -32.5t-51 -55.5q-8 -8 -16.5 -18.5t-16.5 -18.5q-27 -35 -45.5 -64.5t-18.5 -48.5q2 -8 7.5 -13t17.5 -5h229l-65 -203h-36h-46h-46h-36q-63 0 -117.5 28.5t-85.5 86.5q-6 12 -10 24.5t-6 26.5q-4 12 -5 24.5 t-1 24.5q0 66 28.5 128.5t67.5 115.5h-33q-6 0 -11 -1t-11 -3q-20 -6 -39 -23.5t-27 -36.5q-2 -2 -3 -5t-1 -5l-16 -47z" />
<glyph unicode="s" horiz-adv-x="528" d="M0 4l66 203h141q53 0 78.5 25.5t25.5 80.5q0 29 -6 54.5t-16 46.5l-67 -91q-28 -38 -27 -40l-164 118l44 62l99 135l96 135q45 61 45 64l183 -90q-2 -2 -25 -35l-57 -80q47 -57 72.5 -130t25.5 -149q0 -137 -84 -223t-223 -86h-207z" />
<glyph unicode="t" horiz-adv-x="481" d="M-6 463l67 203h113l78 239l192 -63l-57 -176h109l-66 -203h-108l-84 -256h243l-65 -203h-230q-74 0 -120 49t-46 115q0 6 1.5 13t1.5 16q2 8 4 15t4 13l78 238h-115z" />
<glyph unicode="u" horiz-adv-x="692" d="M11 250q1 10 3 20q0 10 3 20.5l6 20.5l114 357h213l-135 -420q-2 -6 -3 -12.5t-1 -10.5q0 -8 5 -13t20 -5q6 0 12 1t12 3q35 8 65.5 35.5t41.5 58.5q0 2 1 3t1 3l116 357h211l-133 -420q-2 -6 -3 -12.5t-1 -10.5q0 -8 5 -13t20 -5h129l-68 -203h-30h-31q-45 0 -87 16.5 t-75 45.5q-41 -29 -89 -45.5t-97 -16.5q-10 0 -19.5 1t-19.5 3q-10 0 -19.5 3t-19.5 5q-74 25 -112 84q-36 56 -36 122q0 17 1 28z" />
<glyph unicode="v" horiz-adv-x="653" d="M8 362q0 55 8.5 112.5t24.5 115.5l12 40l13 38h217q-20 -45 -37 -97.5t-25 -105.5q-6 -27 -8 -52.5t-2 -52.5q0 -20 2 -41.5t6 -42.5q39 35 72 74t59 82q-10 18 -16 39t-6 41q0 12 2 24.5t6 24.5q16 51 62 87t100 48q10 2 21 3t22 1h139l-22 -66q-11 -34 -21 -69h143 l-65 -203h-170q-14 -25 -30.5 -49t-35.5 -49q-61 -82 -132 -143.5t-152 -116.5h-56l-24 36l-23 34q-39 63 -61.5 130.5t-22.5 157.5z" />
<glyph unicode="w" horiz-adv-x="972" d="M6 367v25q0 13 2 26q4 63 18.5 126.5t36.5 123.5h211l-17 -56q-9 -29 -15 -57q-14 -55 -23.5 -106.5t-9.5 -86.5q0 -14 1 -27t3 -26q0 -6 1 -13t3 -13q33 35 61.5 72.5t53.5 76.5q6 59 20.5 118.5t34.5 117.5h217q-16 -39 -29.5 -82t-23.5 -86q-8 -39 -12 -76t-4 -72 q0 -20 3 -39.5t5 -36.5q37 35 69.5 74t59.5 82q-6 10 -10.5 19.5t-6.5 19.5q-4 10 -5 20.5t-1 18.5q0 47 26.5 86t65.5 66q51 33 106 36q36 3 74 3q19 0 37 -1h22h21l-21 -66l-22 -69h150l-68 -203h-172q-70 -117 -156.5 -200.5t-195.5 -157.5h-57q-4 4 -7 9t-8 10l-41 61 q-20 31 -34 66q-39 -41 -82 -76l-90 -70h-60l-9 13l-9 14q-6 6 -11 13l-10 13q-51 68 -71.5 148t-20.5 162z" />
<glyph unicode="x" horiz-adv-x="759" d="M0 4l260 301l-135 363h215l36 -94l34 -93l159 187h269l-346 -404q2 -6 4 -11t4 -11l4 -11.5l4 -11.5q4 -8 9 -10t13 -2h226l-66 -203h-36h-44h-44h-36q-57 0 -105 23.5t-81 68.5l-78 -92h-266z" />
<glyph unicode="y" horiz-adv-x="665" d="M2 229q0 20 4 42t10 42l59 177q30 89 56 178h213l-66 -209l-69 -209q0 -2 -1 -4t-1 -4q0 -4 -1 -8.5t-1 -8.5q0 -8 4 -12t14 -4q25 0 51.5 20.5t55.5 55.5q31 41 60.5 93t55.5 107l48 96q23 46 38 85v2h224q-8 -20 -19 -42l-20 -42l-48 -107q-28 -59 -61 -119 q-8 -18 -18 -35l-21 -34q0 -55 -2 -111.5t-8 -114.5q-27 -223 -135.5 -418.5t-347.5 -256.5l-49 194q158 41 230.5 175t94.5 286q-31 -18 -62.5 -27.5t-66.5 -9.5q-100 0 -160.5 66.5t-60.5 156.5z" />
<glyph unicode="z" horiz-adv-x="585" d="M-6 463l65 205h43h45h121h94q88 0 148.5 -61.5t60.5 -149.5q0 -61 -29.5 -116.5t-64.5 -107.5q-8 -12 -17 -24l-18 -25q76 -23 108 -68.5t32 -107.5q0 -43 -15.5 -95t-42.5 -110q-14 -31 -32.5 -61.5l-38.5 -60.5l-52 -75q-27 -38 -55 -73l-13 -17l-14 -18l-264 -2l53 65 l56 70l37 47l37 50q31 41 57.5 83t44.5 80q8 16 12 32t4 28q0 25 -19.5 39t-68.5 14h-190l106 158l55 82l56 82l28 40l27 40q0 2 3 7t7 11q0 2 2.5 5t2.5 5l4 11.5t2 9.5t-2 6t-7 2h-368z" />
<glyph unicode="{" />
<glyph unicode="|" />
<glyph unicode="}" />
<glyph unicode="~" />
<glyph unicode="&#xa1;" horiz-adv-x="532" d="M31 -326l276 848h213l-276 -848h-213zM358 684l66 201h213l-64 -201h-215z" />
<glyph unicode="&#xa2;" horiz-adv-x="712" d="M10 498v17q0 9 2 20q12 154 113.5 298t220.5 242l32 27q15 12 32 22q33 23 70.5 45.5t76.5 38.5l39 117h141l-28 -86q33 0 63.5 -9t58.5 -26q47 -29 68 -69.5t21 -85.5q0 -33 -9.5 -67t-25.5 -67q-23 -45 -60 -95t-84 -101q-6 -8 -14 -17.5t-16 -17.5l-148 141 q47 49 83 94.5t56 84.5q4 6 5.5 12t3.5 10q2 2 3 4t1 4q-6 2 -13 2h-12q-12 0 -25.5 -3t-25.5 -7q-20 -8 -40 -19l-36 -22l-18 -14l-17 -13l-47 -35q-25 -19 -51 -44q-59 -57 -114.5 -129t-82.5 -148q-10 -27 -15 -53.5t-5 -50.5q0 -31 10 -51.5t43 -20.5h90h90h91h90 l-66 -203h-45h-45h-47h-45l-72 -219h-141l72 221q-106 10 -167 88.5t-61 184.5z" />
<glyph unicode="&#xa3;" horiz-adv-x="952" d="M0 229q25 12 52.5 23.5t56.5 19.5l18 4.5l18 4.5l56 165h-113l66 205h112q6 16 11.5 33.5l11.5 36.5q6 16 11 33.5t11 36.5q45 135 172 233t271 98q72 0 137 -29.5t106 -93.5l-168 -112q-12 18 -30.5 25.5t-40.5 7.5q-10 0 -21 -2l-20 -5q-23 -6 -44.5 -14t-37.5 -18 q-8 -4 -15 -10l-14 -9q-51 -39 -74.5 -81t-39.5 -93q-4 -10 -6.5 -18t-6.5 -19h164l-65 -205h-164l-47 -143q41 -2 79.5 -10t71.5 -23q23 -8 51.5 -13t59.5 -5q12 0 25.5 1t27.5 1q51 6 101.5 20.5t86.5 32.5l88 -182q-57 -27 -125.5 -46.5t-138.5 -25.5q-16 -2 -32.5 -3 t-32.5 -1q-51 0 -98.5 8.5t-88.5 24.5q-25 10 -54.5 14t-59.5 4h-22q-11 0 -21 -2q-55 -4 -106.5 -18t-90.5 -33z" />
<glyph unicode="&#xa4;" horiz-adv-x="1126" d="M6 449l43 135h107q4 10 7 21t5 22h-115l43 135h131q47 84 110.5 157.5t133.5 124.5q80 59 183.5 103.5t209.5 58.5q23 4 44.5 5t41.5 1q102 0 194.5 -36.5t162.5 -120.5l-144 -146q-37 51 -95 76t-130 25h-8h-8q-129 -4 -249 -74t-204 -174h547l-137 -135h-494l-8 -22 l-8 -21h467l-136 -135h-356q0 -106 66.5 -177t197.5 -71q45 0 93.5 9t95.5 28q39 16 78.5 38.5t78.5 51.5l123 -162q-80 -61 -183 -105.5t-210 -56.5q-23 -4 -44 -4h-42q-113 0 -212 44t-171 146q-35 49 -53.5 103.5t-20.5 109.5q-2 12 -2 24v22h-133z" />
<glyph unicode="&#xa5;" horiz-adv-x="929" d="M-2 449l43 135h248q-2 6 -3 11t-1 11q-2 4 -3 9.5t-3 11.5h-226l45 135h166q-4 55 -4 112.5t2 114.5q2 47 6 96l8 97q0 8 1.5 16t1.5 16h204q0 -10 -1 -21t-3 -24l-8 -101q-4 -52 -6 -105q-2 -74 -1 -147t11 -136q84 70 162 150.5t149 164.5l93 113l86 106h258l-76 -94 l-84 -104q-4 -4 -8 -10.5t-8 -10.5l-107 -129q-51 -61 -92 -104h98l-43 -135h-184l-11 -12q-5 -5 -12 -9l-11 -11l-11 -11h217l-45 -135h-307l-144 -445h-213l142 445h-326z" />
<glyph unicode="&#xa6;" />
<glyph unicode="&#xa7;" />
<glyph unicode="&#xa8;" horiz-adv-x="587" d="M27 1071l116 186l133 -81l-116 -189zM311 1071l115 186l135 -81l-115 -189z" />
<glyph unicode="&#xa9;" />
<glyph unicode="&#xaa;" horiz-adv-x="362" d="M10 885q0 35 13.5 69.5t33.5 63.5q72 96 180.5 134t223.5 38v-137q-45 0 -88 -5.5t-82 -21.5q-37 -12 -69 -33.5t-54 -52.5q-2 -2 -5 -7t-5 -9t-4 -9.5t-4 -9.5q-2 -6 -3.5 -11t-1.5 -9q0 -6 4.5 -10.5t12.5 -4.5q53 0 79.5 36t43.5 79q2 8 5 16.5t5 16.5l129 -41 l-31 -96h148l-45 -136h-134q-20 0 -38.5 7.5t-32.5 17.5q-20 -12 -43 -20.5t-47 -12.5q-8 0 -17.5 -1t-19.5 -1q-43 0 -80 18.5t-59 63.5q-8 16 -11.5 34t-3.5 34z" />
<glyph unicode="&#xab;" horiz-adv-x="716" d="M20 610l326 326l103 -105l-222 -221l222 -221l-103 -102zM287 610l325 326l103 -105l-221 -221l221 -221l-103 -102z" />
<glyph unicode="&#xac;" />
<glyph unicode="&#xad;" />
<glyph unicode="&#xae;" />
<glyph unicode="&#xaf;" horiz-adv-x="563" />
<glyph unicode="&#xb0;" />
<glyph unicode="&#xb1;" />
<glyph unicode="&#xb2;" />
<glyph unicode="&#xb3;" />
<glyph unicode="&#xb4;" horiz-adv-x="698" d="M123 1153l448 152l52 -150l-449 -151z" />
<glyph unicode="&#xb5;" />
<glyph unicode="&#xb6;" />
<glyph unicode="&#xb7;" horiz-adv-x="563" />
<glyph unicode="&#xb8;" horiz-adv-x="587" d="M45 -406l61 150h136q35 2 48 13.5t11 25.5q0 4 -1 7t-1 7q-4 10 -12 20.5t-19 16.5l-54 33l-54 33l59 100l62 100l133 -82l-39 -69q39 -29 60.5 -72t21.5 -90q0 -20 -4 -39.5t-13 -38.5v-2q-25 -51 -71.5 -82t-100.5 -31h-47h-65h-22h-19h-40h-30z" />
<glyph unicode="&#xb9;" />
<glyph unicode="&#xba;" horiz-adv-x="305" d="M4 963q0 96 71.5 172.5t172.5 76.5q59 0 106 -30.5t72 -83.5h123l-45 -140h-66q-20 -80 -85.5 -138t-149.5 -58h-16q-7 0 -15 2q-76 10 -122 67.5t-46 131.5zM143 967q0 -27 14.5 -46.5t43.5 -19.5t52 17.5t38 42.5q-35 8 -60.5 34.5t-29.5 65.5q-23 -14 -38.5 -37 t-19.5 -47v-5v-5z" />
<glyph unicode="&#xbb;" horiz-adv-x="710" d="M18 389l222 221l-222 221l103 105l325 -326l-325 -323zM285 389l221 221l-221 221l102 105l326 -326l-326 -323z" />
<glyph unicode="&#xbc;" />
<glyph unicode="&#xbd;" />
<glyph unicode="&#xbe;" />
<glyph unicode="&#xbf;" horiz-adv-x="819" d="M23 -250v-2q0 102 56 173t124 132q6 4 12 10.5t12 10.5l5 5l6 5q10 8 19 17.5t19 17.5q10 10 20.5 19l20.5 18q51 49 91.5 94t50.5 76l26 80h205q-4 -12 -7 -25.5t-7 -28.5q-6 -27 -13.5 -52.5t-11.5 -37.5q-10 -31 -29.5 -63.5t-46.5 -65.5q-31 -37 -67.5 -73.5 t-73.5 -69.5q-14 -14 -29.5 -27.5t-29.5 -28.5l-85 -78q-38 -36 -44 -51q-8 -14 -12.5 -25t-6.5 -22q6 -2 16 -2h23h135h136q41 0 65.5 23.5t24.5 56.5q0 4 -1 9t-1 10q-4 14 -13.5 27.5t-23.5 25.5l129 155q53 -45 82.5 -104t29.5 -123q0 -12 -1 -23.5t-3 -23.5t-5 -23.5 t-7 -23.5q-33 -88 -108.5 -138t-167.5 -50h-136h-135q-94 0 -168.5 47t-74.5 149zM492 557l67 205h213l-65 -205h-215z" />
<glyph unicode="&#xc0;" horiz-adv-x="1165" d="M-6 299l65 205h199q39 143 106.5 265t149.5 214q63 70 132 120t140 79q41 16 82 25.5t80 9.5q115 0 187.5 -49.5t99.5 -163.5q6 -25 9 -53.5t3 -59.5q0 -78 -20.5 -180.5t-61.5 -231.5l-155 -473h-213l96 293h-459q-2 -37 1 -74t7 -75q4 -29 12 -60l13 -59l20 -70l21 -70 q2 -10 5 -19t5 -17l-194 -60l-44 159q-22 81 -36 163l-7.5 45t-5.5 47q-2 23 -3 45t-1 45h-233zM467 504h491l13 37q41 121 58.5 208t17.5 148q0 16 -1.5 31.5t-5.5 27.5q-8 31 -31.5 44.5t-60.5 13.5q-41 0 -89 -20.5t-97 -57.5q-25 -18 -48.5 -41t-47.5 -49 q-70 -76 -120 -162t-79 -180zM633 1397l51 149l449 -151l-52 -150z" />
<glyph unicode="&#xc1;" horiz-adv-x="1165" d="M-6 299l65 205h199q39 143 106.5 265t149.5 214q63 70 132 120t140 79q41 16 82 25.5t80 9.5q115 0 187.5 -49.5t99.5 -163.5q6 -25 9 -53.5t3 -59.5q0 -78 -20.5 -180.5t-61.5 -231.5l-155 -473h-213l96 293h-459q-2 -37 1 -74t7 -75q4 -29 12 -60l13 -59l20 -70l21 -70 q2 -10 5 -19t5 -17l-194 -60l-44 159q-22 81 -36 163l-7.5 45t-5.5 47q-2 23 -3 45t-1 45h-233zM467 504h491l13 37q41 121 58.5 208t17.5 148q0 16 -1.5 31.5t-5.5 27.5q-8 31 -31.5 44.5t-60.5 13.5q-41 0 -89 -20.5t-97 -57.5q-25 -18 -48.5 -41t-47.5 -49 q-70 -76 -120 -162t-79 -180zM922 1395l448 151l51 -149l-448 -152z" />
<glyph unicode="&#xc2;" horiz-adv-x="1165" d="M-6 299l65 205h199q39 143 106.5 265t149.5 214q63 70 132 120t140 79q41 16 82 25.5t80 9.5q115 0 187.5 -49.5t99.5 -163.5q6 -25 9 -53.5t3 -59.5q0 -78 -20.5 -180.5t-61.5 -231.5l-155 -473h-213l96 293h-459q-2 -37 1 -74t7 -75q4 -29 12 -60l13 -59l20 -70l21 -70 q2 -10 5 -19t5 -17l-194 -60l-44 159q-22 81 -36 163l-7.5 45t-5.5 47q-2 23 -3 45t-1 45h-233zM467 504h491l13 37q41 121 58.5 208t17.5 148q0 16 -1.5 31.5t-5.5 27.5q-8 31 -31.5 44.5t-60.5 13.5q-41 0 -89 -20.5t-97 -57.5q-25 -18 -48.5 -41t-47.5 -49 q-70 -76 -120 -162t-79 -180zM653 1348l314 174l311 -174l-78 -138l-233 131l-236 -131z" />
<glyph unicode="&#xc3;" horiz-adv-x="1165" d="M-6 299l65 205h199q39 143 106.5 265t149.5 214q63 70 132 120t140 79q41 16 82 25.5t80 9.5q115 0 187.5 -49.5t99.5 -163.5q6 -25 9 -53.5t3 -59.5q0 -78 -20.5 -180.5t-61.5 -231.5l-155 -473h-213l96 293h-459q-2 -37 1 -74t7 -75q4 -29 12 -60l13 -59l20 -70l21 -70 q2 -10 5 -19t5 -17l-194 -60l-44 159q-22 81 -36 163l-7.5 45t-5.5 47q-2 23 -3 45t-1 45h-233zM467 504h491l13 37q41 121 58.5 208t17.5 148q0 16 -1.5 31.5t-5.5 27.5q-8 31 -31.5 44.5t-60.5 13.5q-41 0 -89 -20.5t-97 -57.5q-25 -18 -48.5 -41t-47.5 -49 q-70 -76 -120 -162t-79 -180zM637 1331q37 63 98.5 97t130.5 34q33 0 65 -8t60 -24q12 -6 24.5 -9.5t24.5 -3.5q29 0 53.5 13.5t39.5 39.5l137 -79q-37 -63 -98.5 -97t-131.5 -34q-33 0 -64.5 8t-60.5 24q-12 6 -24 9.5t-25 3.5q-27 0 -51 -13.5t-41 -38.5z" />
<glyph unicode="&#xc4;" horiz-adv-x="1165" d="M-6 299l65 205h199q39 143 106.5 265t149.5 214q63 70 132 120t140 79q41 16 82 25.5t80 9.5q115 0 187.5 -49.5t99.5 -163.5q6 -25 9 -53.5t3 -59.5q0 -78 -20.5 -180.5t-61.5 -231.5l-155 -473h-213l96 293h-459q-2 -37 1 -74t7 -75q4 -29 12 -60l13 -59l20 -70l21 -70 q2 -10 5 -19t5 -17l-194 -60l-44 159q-22 81 -36 163l-7.5 45t-5.5 47q-2 23 -3 45t-1 45h-233zM467 504h491l13 37q41 121 58.5 208t17.5 148q0 16 -1.5 31.5t-5.5 27.5q-8 31 -31.5 44.5t-60.5 13.5q-41 0 -89 -20.5t-97 -57.5q-25 -18 -48.5 -41t-47.5 -49 q-70 -76 -120 -162t-79 -180zM715 1329l116 187l134 -82l-117 -189zM999 1329l115 187l135 -82l-114 -189z" />
<glyph unicode="&#xc5;" horiz-adv-x="1165" d="M-6 299l65 205h199q39 143 106.5 265t149.5 214q63 70 132 120t140 79q41 16 82 25.5t80 9.5q115 0 187.5 -49.5t99.5 -163.5q6 -25 9 -53.5t3 -59.5q0 -78 -20.5 -180.5t-61.5 -231.5l-155 -473h-213l96 293h-459q-2 -37 1 -74t7 -75q4 -29 12 -60l13 -59l20 -70l21 -70 q2 -10 5 -19t5 -17l-194 -60l-44 159q-22 81 -36 163l-7.5 45t-5.5 47q-2 23 -3 45t-1 45h-233zM467 504h491l13 37q41 121 58.5 208t17.5 148q0 16 -1.5 31.5t-5.5 27.5q-8 31 -31.5 44.5t-60.5 13.5q-41 0 -89 -20.5t-97 -57.5q-25 -18 -48.5 -41t-47.5 -49 q-70 -76 -120 -162t-79 -180zM844 1389q0 31 11 56t30 44v2q23 20 48 30.5t54 10.5q59 0 101 -42t42 -101q0 -29 -11 -54.5t-32 -46.5q-18 -20 -44.5 -30.5t-55.5 -10.5q-57 0 -100 42.5t-43 99.5zM950 1389q0 -14 11.5 -25.5t25.5 -11.5q8 0 15.5 3t11.5 7t7 11t3 16 q0 16 -10 27t-27 11q-8 0 -15 -3t-11 -7q-6 -4 -8.5 -11t-2.5 -17z" />
<glyph unicode="&#xc6;" horiz-adv-x="1814" d="M2 299l66 203h196q39 145 106.5 267t149.5 212q59 66 124 114t130 79q47 20 92 30t88 10q88 0 152.5 -29.5t103.5 -94.5q63 51 139 90t156 61q41 10 82 16.5t80 6.5q53 -2 101.5 -13.5t86.5 -36.5q31 -20 54.5 -47.5t36.5 -62.5q6 -18 9 -35.5t3 -34.5q0 -90 -68.5 -168 t-150.5 -141q-43 -33 -85 -61l-73 -52l-123 160q6 4 50 36l98 73l19 15q9 7 17 15q45 37 79 71t32 52q0 4 -1 6t-5 4q-16 10 -35.5 15.5t-42.5 5.5q-14 0 -29.5 -2t-31.5 -6q-31 -6 -61.5 -16.5l-57.5 -20.5l-24 -12l-21 -11q-12 -6 -39 -22.5t-55 -38.5 q-23 -14 -42.5 -32.5t-33.5 -37.5q-14 -16 -21.5 -31.5t-7.5 -29.5q0 -2 1 -4t1 -4t1 -5.5t3 -7.5l-2 4l150 -266l-70 -52l-69 -52l-70 -51l-70 -54l-69 -51l-70 -53h838l-66 -205h-386h-388q-109 0 -168 53.5t-59 124.5q0 29 9 58.5t30 58.5h-353q0 -23 1 -45.5t3 -46.5 q8 -78 28 -155l40 -150q4 -12 7 -23.5t7 -23.5l-194 -60q-2 6 -3 11.5t-3 9.5q-33 119 -62 239.5t-26 243.5h-234zM475 502h492q8 25 16 53.5t18 58.5q10 31 19 65l16 69q8 35 12.5 69.5t4.5 67.5q0 20 -2 37.5t-7 33.5q-8 29 -30.5 42.5t-59.5 13.5q-41 0 -89 -19.5 t-97 -56.5q-25 -18 -48.5 -41t-47.5 -49q-61 -68 -111.5 -155t-85.5 -189z" />
<glyph unicode="&#xc7;" horiz-adv-x="931" d="M2 334q0 12 1 24.5t1 24.5q18 188 144 367.5t276 304.5l44 36l44 33q6 4 11 8.5t12 6.5q57 39 125.5 73.5t140.5 47.5q18 4 38.5 6t39.5 2q45 0 87 -12.5t81 -41.5q45 -33 63 -73.5t18 -87.5q0 -14 -2 -30.5t-6 -31.5q-10 -47 -32.5 -93t-47.5 -85q-31 -47 -71.5 -97 t-87.5 -100q-68 -74 -148 -144.5t-162 -133.5l-5 -5q-3 -3 -7 -5l-123 159q68 51 132.5 108.5t121.5 115.5q55 55 100.5 108t77.5 103q4 4 12.5 17t16.5 32l4 8l4 8q10 18 16.5 35.5t6.5 26.5v2l-2 2q-12 10 -25.5 13t-30.5 3q-20 0 -41.5 -5t-42.5 -13l-44 -21 q-22 -10 -42 -22l-41 -27l-30 -20q-29 -20 -60.5 -46t-62.5 -57q-88 -82 -166 -186.5t-113 -214.5q-10 -31 -15 -61.5t-5 -61.5q0 -53 21.5 -89t78.5 -36h131h150h149h131l-65 -203h-114h-132h-135h-115q-143 0 -224 95.5t-81 232.5zM193 -387l61 149h135q35 2 48.5 13.5 t11.5 25.5q0 4 -1.5 7.5t-1.5 7.5q-4 10 -12 20t-18 17l-55 32l-54 33q29 51 60 100l61 101l133 -82l-39 -70q39 -29 60.5 -71.5t21.5 -90.5q0 -20 -4 -39.5t-12 -37.5v-2q-25 -51 -72 -82t-100 -31h-47h-66h-21h-20h-40h-29z" />
<glyph unicode="&#xc8;" horiz-adv-x="1124" d="M0 184q0 14 3 28.5t7 29.5q12 35 37 68.5t64 62.5l68 50l69 52l68 52l69 51q-2 6 -6 11t-6 9t-5 8l-6 8q-27 43 -48 88.5t-23 98.5q0 150 144.5 271.5t318.5 166.5q41 12 82 17.5t79 5.5q53 0 101.5 -11.5t87.5 -36.5q33 -20 55.5 -46.5t34.5 -61.5q6 -18 9 -35.5 t3 -34.5q0 -90 -68.5 -169t-150.5 -142l-84 -61l-72 -52l-124 162l50 35q44 31 95 72l19 15l20 15q45 37 76.5 70t31.5 51q0 4 -1 7t-5 5q-16 10 -35.5 14.5t-42.5 4.5q-16 0 -32.5 -2t-34.5 -6q-31 -6 -61.5 -16.5t-55.5 -20.5q-10 -4 -20 -9l-19 -10q-12 -6 -39 -23 l-55 -38q-20 -16 -39.5 -33.5t-34.5 -36.5q-12 -16 -20 -32.5t-8 -30.5q0 -6 1 -11.5t3 -9.5l-2 4l151 -266l-70 -52l-71 -52l-139 -104l-140 -105h854l-65 -203h-394h-397q-109 0 -168 53t-59 125zM530 1442l52 149l448 -151l-51 -150z" />
<glyph unicode="&#xc9;" horiz-adv-x="1124" d="M0 184q0 14 3 28.5t7 29.5q12 35 37 68.5t64 62.5l68 50l69 52l68 52l69 51q-2 6 -6 11t-6 9t-5 8l-6 8q-27 43 -48 88.5t-23 98.5q0 150 144.5 271.5t318.5 166.5q41 12 82 17.5t79 5.5q53 0 101.5 -11.5t87.5 -36.5q33 -20 55.5 -46.5t34.5 -61.5q6 -18 9 -35.5 t3 -34.5q0 -90 -68.5 -169t-150.5 -142l-84 -61l-72 -52l-124 162l50 35q44 31 95 72l19 15l20 15q45 37 76.5 70t31.5 51q0 4 -1 7t-5 5q-16 10 -35.5 14.5t-42.5 4.5q-16 0 -32.5 -2t-34.5 -6q-31 -6 -61.5 -16.5t-55.5 -20.5q-10 -4 -20 -9l-19 -10q-12 -6 -39 -23 l-55 -38q-20 -16 -39.5 -33.5t-34.5 -36.5q-12 -16 -20 -32.5t-8 -30.5q0 -6 1 -11.5t3 -9.5l-2 4l151 -266l-70 -52l-71 -52l-139 -104l-140 -105h854l-65 -203h-394h-397q-109 0 -168 53t-59 125zM840 1444l448 151l51 -149l-448 -152z" />
<glyph unicode="&#xca;" horiz-adv-x="1124" d="M0 184q0 14 3 28.5t7 29.5q12 35 37 68.5t64 62.5l68 50l69 52l68 52l69 51q-2 6 -6 11t-6 9t-5 8l-6 8q-27 43 -48 88.5t-23 98.5q0 150 144.5 271.5t318.5 166.5q41 12 82 17.5t79 5.5q53 0 101.5 -11.5t87.5 -36.5q33 -20 55.5 -46.5t34.5 -61.5q6 -18 9 -35.5 t3 -34.5q0 -90 -68.5 -169t-150.5 -142l-84 -61l-72 -52l-124 162l50 35q44 31 95 72l19 15l20 15q45 37 76.5 70t31.5 51q0 4 -1 7t-5 5q-16 10 -35.5 14.5t-42.5 4.5q-16 0 -32.5 -2t-34.5 -6q-31 -6 -61.5 -16.5t-55.5 -20.5q-10 -4 -20 -9l-19 -10q-12 -6 -39 -23 l-55 -38q-20 -16 -39.5 -33.5t-34.5 -36.5q-12 -16 -20 -32.5t-8 -30.5q0 -6 1 -11.5t3 -9.5l-2 4l151 -266l-70 -52l-71 -52l-139 -104l-140 -105h854l-65 -203h-394h-397q-109 0 -168 53t-59 125zM596 1389l313 174l312 -174l-78 -138l-234 131l-235 -131z" />
<glyph unicode="&#xcb;" horiz-adv-x="1124" d="M0 184q0 14 3 28.5t7 29.5q12 35 37 68.5t64 62.5l68 50l69 52l68 52l69 51q-2 6 -6 11t-6 9t-5 8l-6 8q-27 43 -48 88.5t-23 98.5q0 150 144.5 271.5t318.5 166.5q41 12 82 17.5t79 5.5q53 0 101.5 -11.5t87.5 -36.5q33 -20 55.5 -46.5t34.5 -61.5q6 -18 9 -35.5 t3 -34.5q0 -90 -68.5 -169t-150.5 -142l-84 -61l-72 -52l-124 162l50 35q44 31 95 72l19 15l20 15q45 37 76.5 70t31.5 51q0 4 -1 7t-5 5q-16 10 -35.5 14.5t-42.5 4.5q-16 0 -32.5 -2t-34.5 -6q-31 -6 -61.5 -16.5t-55.5 -20.5q-10 -4 -20 -9l-19 -10q-12 -6 -39 -23 l-55 -38q-20 -16 -39.5 -33.5t-34.5 -36.5q-12 -16 -20 -32.5t-8 -30.5q0 -6 1 -11.5t3 -9.5l-2 4l151 -266l-70 -52l-71 -52l-139 -104l-140 -105h854l-65 -203h-394h-397q-109 0 -168 53t-59 125zM678 1366l117 186l133 -82l-117 -188zM963 1366l114 186l135 -82 l-114 -188z" />
<glyph unicode="&#xcc;" horiz-adv-x="960" d="M2 6l66 203h105h106h104h104q8 0 16.5 1t16.5 3q55 12 105.5 56t66.5 96l53 164l54 165l53 165l53 165q2 4 3 9t1 7q-8 4 -15 4h-17q-16 0 -36 -5t-38 -11q-23 -10 -44.5 -21.5t-39.5 -23.5q-18 -10 -32.5 -21.5t-27.5 -19.5l-37 -28q-22 -15 -42 -33 q-49 -41 -91.5 -94.5t-42.5 -112.5q0 -14 3.5 -27.5t9.5 -28.5q12 -29 30.5 -55l38.5 -53q0 -2 2 -4l5 -4q6 -10 13 -19.5t13 -19.5l-172 -111l-20 31l-21 29l-39.5 59.5t-36.5 65.5q-14 35 -21 69.5t-7 69.5q0 80 35.5 155.5t95.5 133.5q23 23 49 46l55 48q66 53 141.5 101 t153.5 71q29 10 56.5 14t54.5 4q37 0 71.5 -9t67.5 -32q47 -31 67.5 -74.5t20.5 -91.5q0 -20 -4 -39.5t-10 -39.5l-107 -331l-106 -329q-39 -123 -154 -210t-244 -87h-485zM547 1421l51 150l449 -152l-52 -149z" />
<glyph unicode="&#xcd;" horiz-adv-x="960" d="M2 6l66 203h105h106h104h104q8 0 16.5 1t16.5 3q55 12 105.5 56t66.5 96l53 164l54 165l53 165l53 165q2 4 3 9t1 7q-8 4 -15 4h-17q-16 0 -36 -5t-38 -11q-23 -10 -44.5 -21.5t-39.5 -23.5q-18 -10 -32.5 -21.5t-27.5 -19.5l-37 -28q-22 -15 -42 -33 q-49 -41 -91.5 -94.5t-42.5 -112.5q0 -14 3.5 -27.5t9.5 -28.5q12 -29 30.5 -55l38.5 -53q0 -2 2 -4l5 -4q6 -10 13 -19.5t13 -19.5l-172 -111l-20 31l-21 29l-39.5 59.5t-36.5 65.5q-14 35 -21 69.5t-7 69.5q0 80 35.5 155.5t95.5 133.5q23 23 49 46l55 48q66 53 141.5 101 t153.5 71q29 10 56.5 14t54.5 4q37 0 71.5 -9t67.5 -32q47 -31 67.5 -74.5t20.5 -91.5q0 -20 -4 -39.5t-10 -39.5l-107 -331l-106 -329q-39 -123 -154 -210t-244 -87h-485zM844 1432l448 151l51 -149l-448 -152z" />
<glyph unicode="&#xce;" horiz-adv-x="960" d="M2 6l66 203h105h106h104h104q8 0 16.5 1t16.5 3q55 12 105.5 56t66.5 96l53 164l54 165l53 165l53 165q2 4 3 9t1 7q-8 4 -15 4h-17q-16 0 -36 -5t-38 -11q-23 -10 -44.5 -21.5t-39.5 -23.5q-18 -10 -32.5 -21.5t-27.5 -19.5l-37 -28q-22 -15 -42 -33 q-49 -41 -91.5 -94.5t-42.5 -112.5q0 -14 3.5 -27.5t9.5 -28.5q12 -29 30.5 -55l38.5 -53q0 -2 2 -4l5 -4q6 -10 13 -19.5t13 -19.5l-172 -111l-20 31l-21 29l-39.5 59.5t-36.5 65.5q-14 35 -21 69.5t-7 69.5q0 80 35.5 155.5t95.5 133.5q23 23 49 46l55 48q66 53 141.5 101 t153.5 71q29 10 56.5 14t54.5 4q37 0 71.5 -9t67.5 -32q47 -31 67.5 -74.5t20.5 -91.5q0 -20 -4 -39.5t-10 -39.5l-107 -331l-106 -329q-39 -123 -154 -210t-244 -87h-485zM559 1356l313 174l312 -174l-78 -137l-234 131l-235 -131z" />
<glyph unicode="&#xcf;" horiz-adv-x="960" d="M2 6l66 203h105h106h104h104q8 0 16.5 1t16.5 3q55 12 105.5 56t66.5 96l53 164l54 165l53 165l53 165q2 4 3 9t1 7q-8 4 -15 4h-17q-16 0 -36 -5t-38 -11q-23 -10 -44.5 -21.5t-39.5 -23.5q-18 -10 -32.5 -21.5t-27.5 -19.5l-37 -28q-22 -15 -42 -33 q-49 -41 -91.5 -94.5t-42.5 -112.5q0 -14 3.5 -27.5t9.5 -28.5q12 -29 30.5 -55l38.5 -53q0 -2 2 -4l5 -4q6 -10 13 -19.5t13 -19.5l-172 -111l-20 31l-21 29l-39.5 59.5t-36.5 65.5q-14 35 -21 69.5t-7 69.5q0 80 35.5 155.5t95.5 133.5q23 23 49 46l55 48q66 53 141.5 101 t153.5 71q29 10 56.5 14t54.5 4q37 0 71.5 -9t67.5 -32q47 -31 67.5 -74.5t20.5 -91.5q0 -20 -4 -39.5t-10 -39.5l-107 -331l-106 -329q-39 -123 -154 -210t-244 -87h-485zM657 1350l117 186l133 -82l-116 -188zM942 1350l115 186l135 -82l-115 -188z" />
<glyph unicode="&#xd0;" horiz-adv-x="1206" d="M12 299l66 203h139l96 297h213l-96 -297h129l-65 -203h-129l-27 -82q119 16 222.5 64.5t197.5 121.5l77 64q48 41 99 92l78 85q39 44 67 91q29 43 45.5 85t16.5 81q0 27 -9.5 51.5t-29.5 44.5q-20 23 -58 33t-90 10q-31 0 -66.5 -3t-76.5 -11q-123 -20 -265.5 -68.5 t-287.5 -113.5l-53 -25l-53 -24l-89 180l85 41l85 39q141 61 280.5 106t264.5 66q41 6 83 11t85 5q94 -2 182.5 -28.5t145.5 -102.5q33 -43 48 -92t15 -102q0 -94 -46 -199t-132 -211q-53 -68 -123.5 -134.5t-154.5 -131.5q-88 -68 -171 -113t-167 -74q-35 -12 -70 -20 t-67 -12q-82 -14 -165 -16.5t-167 -2.5h-9h-10l97 295h-140z" />
<glyph unicode="&#xd1;" horiz-adv-x="1300" d="M8 6l78 107l82 118l41 63l41 62l67 109l62 104l115 205l112 209l62 118l59 116h207q-4 -39 -10 -87l-13 -94q0 -4 -1 -10t-1 -10q-8 -53 -14 -103.5t-12 -89.5q-6 -43 -11.5 -87l-11.5 -89l-20 -175l-19 -171q76 102 145.5 216t129.5 233q61 121 114.5 240.5t96.5 226.5 h223l-50 -119l-57 -129l-12 -29l-12 -27l-64 -137l-57 -119q-72 -137 -154 -270t-174 -250q-6 -8 -12 -15t-12 -16q-35 -37 -79 -69.5t-95 -32.5q-8 0 -16.5 1t-18.5 3q-59 16 -82 64.5t-25 101.5q-2 10 -1 21.5t1 21.5q8 96 19.5 204.5t25.5 223.5l-49 -90l-51 -88 l-147 -242q-74 -117 -148 -219h-252zM870 1319q37 63 98.5 97t131.5 34q33 0 64.5 -8t60.5 -25q12 -6 24.5 -9t24.5 -3q29 0 53.5 13.5t38.5 39.5l137 -80q-37 -63 -98.5 -97t-130.5 -34q-33 0 -64.5 8.5t-60.5 24.5q-12 6 -24.5 9t-24.5 3q-27 0 -51.5 -13t-40.5 -38z" />
<glyph unicode="&#xd2;" horiz-adv-x="563" />
<glyph unicode="&#xd3;" horiz-adv-x="1263" d="M6 520q0 268 206 482.5t478 214.5q164 0 294 -91.5t183 -246.5h322l-66 -203h-229q-10 -260 -213 -465t-465 -205q-25 0 -49.5 2t-48.5 6q-186 33 -299 176.5t-113 329.5zM209 520q0 -133 84 -222t219 -89q182 0 324.5 143.5t154.5 323.5h-13h-13q-59 0 -112.5 8 t-92.5 66q-16 25 -24.5 49t-8.5 47q0 33 10.5 65.5l22.5 67.5l4 12l4 13q-20 4 -39.5 7t-38.5 3q-190 0 -335.5 -154t-145.5 -340zM516 1391l449 151l51 -149l-449 -152z" />
<glyph unicode="&#xd4;" horiz-adv-x="1263" d="M6 520q0 268 206 482.5t478 214.5q164 0 294 -91.5t183 -246.5h322l-66 -203h-229q-10 -260 -213 -465t-465 -205q-25 0 -49.5 2t-48.5 6q-186 33 -299 176.5t-113 329.5zM209 520q0 -133 84 -222t219 -89q182 0 324.5 143.5t154.5 323.5h-13h-13q-59 0 -112.5 8 t-92.5 66q-16 25 -24.5 49t-8.5 47q0 33 10.5 65.5l22.5 67.5l4 12l4 13q-20 4 -39.5 7t-38.5 3q-190 0 -335.5 -154t-145.5 -340zM387 1331l313 174l312 -174l-78 -137l-234 131l-235 -131z" />
<glyph unicode="&#xd5;" horiz-adv-x="1263" d="M6 520q0 268 206 482.5t478 214.5q164 0 294 -91.5t183 -246.5h322l-66 -203h-229q-10 -260 -213 -465t-465 -205q-25 0 -49.5 2t-48.5 6q-186 33 -299 176.5t-113 329.5zM209 520q0 -133 84 -222t219 -89q182 0 324.5 143.5t154.5 323.5h-13h-13q-59 0 -112.5 8 t-92.5 66q-16 25 -24.5 49t-8.5 47q0 33 10.5 65.5l22.5 67.5l4 12l4 13q-20 4 -39.5 7t-38.5 3q-190 0 -335.5 -154t-145.5 -340zM391 1319q37 63 98.5 97t131.5 34q33 0 64.5 -8t59.5 -25q12 -6 24.5 -9t25.5 -3q29 0 53 13.5t39 39.5l137 -80q-37 -63 -98.5 -97 t-130.5 -34q-33 0 -65 8.5t-60 24.5q-12 6 -24.5 9t-24.5 3q-27 0 -51.5 -13t-41.5 -38z" />
<glyph unicode="&#xd6;" horiz-adv-x="1263" d="M6 520q0 268 206 482.5t478 214.5q164 0 294 -91.5t183 -246.5h322l-66 -203h-229q-10 -260 -213 -465t-465 -205q-25 0 -49.5 2t-48.5 6q-186 33 -299 176.5t-113 329.5zM209 520q0 -133 84 -222t219 -89q182 0 324.5 143.5t154.5 323.5h-13h-13q-59 0 -112.5 8 t-92.5 66q-16 25 -24.5 49t-8.5 47q0 33 10.5 65.5l22.5 67.5l4 12l4 13q-20 4 -39.5 7t-38.5 3q-190 0 -335.5 -154t-145.5 -340zM449 1305l116 186l133 -82l-116 -188zM733 1305l115 186l135 -82l-115 -188z" />
<glyph unicode="&#xd7;" />
<glyph unicode="&#xd8;" horiz-adv-x="1271" d="M10 520q0 268 206 482.5t478 214.5q59 0 114.5 -12.5t106.5 -37.5l111 174h115l-142 -223q59 -45 103.5 -105.5t68.5 -133.5h324l-65 -203h-230q-10 -260 -214 -465t-466 -205q-25 0 -49.5 2t-48.5 6q-27 4 -51.5 11.5t-46.5 15.5l-144 -231h-117l175 276 q-106 70 -167 184.5t-61 249.5zM215 520q0 -84 35 -152.5t94 -109.5l391 623q4 27 13 52l16 50q2 6 4 11l4 10l-19.5 4l-19.5 4q-10 0 -19 1t-20 1q-188 0 -333.5 -154t-145.5 -340zM434 219q20 -6 41 -8t41 -2q184 0 326.5 143.5t152.5 323.5h-13h-13q-57 0 -110.5 8 t-92.5 61z" />
<glyph unicode="&#xd9;" horiz-adv-x="1026" d="M10 303q0 123 38 243t83 236l29 73q14 36 26 73q14 41 20.5 62.5t6.5 29.5q0 4 -1 7t-5 3q-20 8 -43 12l-45 9q-4 2 -7 2t-8 2l-28 4q-14 2 -29 6l41 197q14 -2 28.5 -5.5t28.5 -5.5q4 0 9.5 -1t9.5 -1q27 -4 55.5 -10t54.5 -16q82 -29 113 -78t31 -109q0 -31 -6 -62.5 t-17 -64.5l-16 -46l-17 -48q-6 -12 -11 -24.5t-9 -24.5q-8 -23 -18 -48l-21 -52l-21 -62l-22 -63q-20 -63 -33.5 -125t-13.5 -113q0 -41 17.5 -67.5t62.5 -26.5q143 0 259 193.5t222 424.5q4 10 9 19.5l10 19.5q4 8 7 15.5t7 13.5l20 44q10 22 19 44q16 39 28.5 78t22.5 78 q2 2 3 5t1 5q4 16 9 33.5t12 34.5h272l-40 -74l-40 -76l-12 -21q-6 -11 -10 -22q-16 -27 -30.5 -55.5t-25.5 -57.5l-59 -176l-57 -174q-8 -31 -18 -59l-19 -60l-37 -115l-37 -118h201l-60 -203h-170q-63 0 -112.5 41t-63.5 100q-68 -66 -144.5 -103.5t-166.5 -37.5 q-158 0 -220.5 83t-62.5 214zM338 1380l51 150l449 -152l-52 -149z" />
<glyph unicode="&#xda;" horiz-adv-x="1026" d="M10 303q0 123 38 243t83 236l29 73q14 36 26 73q14 41 20.5 62.5t6.5 29.5q0 4 -1 7t-5 3q-20 8 -43 12l-45 9q-4 2 -7 2t-8 2l-28 4q-14 2 -29 6l41 197q14 -2 28.5 -5.5t28.5 -5.5q4 0 9.5 -1t9.5 -1q27 -4 55.5 -10t54.5 -16q82 -29 113 -78t31 -109q0 -31 -6 -62.5 t-17 -64.5l-16 -46l-17 -48q-6 -12 -11 -24.5t-9 -24.5q-8 -23 -18 -48l-21 -52l-21 -62l-22 -63q-20 -63 -33.5 -125t-13.5 -113q0 -41 17.5 -67.5t62.5 -26.5q143 0 259 193.5t222 424.5q4 10 9 19.5l10 19.5q4 8 7 15.5t7 13.5l20 44q10 22 19 44q16 39 28.5 78t22.5 78 q2 2 3 5t1 5q4 16 9 33.5t12 34.5h272l-40 -74l-40 -76l-12 -21q-6 -11 -10 -22q-16 -27 -30.5 -55.5t-25.5 -57.5l-59 -176l-57 -174q-8 -31 -18 -59l-19 -60l-37 -115l-37 -118h201l-60 -203h-170q-63 0 -112.5 41t-63.5 100q-68 -66 -144.5 -103.5t-166.5 -37.5 q-158 0 -220.5 83t-62.5 214zM545 1399l448 151l51 -149l-448 -152z" />
<glyph unicode="&#xdb;" horiz-adv-x="1026" d="M10 303q0 123 38 243t83 236l29 73q14 36 26 73q14 41 20.5 62.5t6.5 29.5q0 4 -1 7t-5 3q-20 8 -43 12l-45 9q-4 2 -7 2t-8 2l-28 4q-14 2 -29 6l41 197q14 -2 28.5 -5.5t28.5 -5.5q4 0 9.5 -1t9.5 -1q27 -4 55.5 -10t54.5 -16q82 -29 113 -78t31 -109q0 -31 -6 -62.5 t-17 -64.5l-16 -46l-17 -48q-6 -12 -11 -24.5t-9 -24.5q-8 -23 -18 -48l-21 -52l-21 -62l-22 -63q-20 -63 -33.5 -125t-13.5 -113q0 -41 17.5 -67.5t62.5 -26.5q143 0 259 193.5t222 424.5q4 10 9 19.5l10 19.5q4 8 7 15.5t7 13.5l20 44q10 22 19 44q16 39 28.5 78t22.5 78 q2 2 3 5t1 5q4 16 9 33.5t12 34.5h272l-40 -74l-40 -76l-12 -21q-6 -11 -10 -22q-16 -27 -30.5 -55.5t-25.5 -57.5l-59 -176l-57 -174q-8 -31 -18 -59l-19 -60l-37 -115l-37 -118h201l-60 -203h-170q-63 0 -112.5 41t-63.5 100q-68 -66 -144.5 -103.5t-166.5 -37.5 q-158 0 -220.5 83t-62.5 214zM354 1368l314 174l311 -174l-78 -137l-233 131l-236 -131z" />
<glyph unicode="&#xdc;" horiz-adv-x="1026" d="M10 303q0 123 38 243t83 236l29 73q14 36 26 73q14 41 20.5 62.5t6.5 29.5q0 4 -1 7t-5 3q-20 8 -43 12l-45 9q-4 2 -7 2t-8 2l-28 4q-14 2 -29 6l41 197q14 -2 28.5 -5.5t28.5 -5.5q4 0 9.5 -1t9.5 -1q27 -4 55.5 -10t54.5 -16q82 -29 113 -78t31 -109q0 -31 -6 -62.5 t-17 -64.5l-16 -46l-17 -48q-6 -12 -11 -24.5t-9 -24.5q-8 -23 -18 -48l-21 -52l-21 -62l-22 -63q-20 -63 -33.5 -125t-13.5 -113q0 -41 17.5 -67.5t62.5 -26.5q143 0 259 193.5t222 424.5q4 10 9 19.5l10 19.5q4 8 7 15.5t7 13.5l20 44q10 22 19 44q16 39 28.5 78t22.5 78 q2 2 3 5t1 5q4 16 9 33.5t12 34.5h272l-40 -74l-40 -76l-12 -21q-6 -11 -10 -22q-16 -27 -30.5 -55.5t-25.5 -57.5l-59 -176l-57 -174q-8 -31 -18 -59l-19 -60l-37 -115l-37 -118h201l-60 -203h-170q-63 0 -112.5 41t-63.5 100q-68 -66 -144.5 -103.5t-166.5 -37.5 q-158 0 -220.5 83t-62.5 214zM403 1305l117 186l133 -82l-116 -188zM688 1305l115 186l135 -82l-115 -188z" />
<glyph unicode="&#xdd;" horiz-adv-x="563" />
<glyph unicode="&#xde;" horiz-adv-x="1085" d="M-45 -102l444 860q27 51 38.5 89t11.5 64q0 74 -72 87.5t-176 15.5h-4h-4l65 200h123q158 0 217 -92t51 -213q72 63 152 111.5t166 48.5h9q5 0 11 -2q4 0 9 -1t10 -1q104 -18 142 -96t38 -168v-19q0 -10 -2 -18q0 -10 -1 -19.5t-3 -19.5q-4 -39 -12.5 -80t-20.5 -82 q-49 -172 -163 -315.5t-304 -143.5h-56h-67h-120q-54 0 -46 0l103 205h55h39h39h53q92 0 168 98.5t110 217.5q12 41 19.5 82t7.5 77q0 23 -2 42.5t-8 35.5q-2 4 -4 5t-6 1q-8 0 -23 -6l-29 -12l-8 -4q-4 -2 -6 -4l-32 -18q-13 -7 -15 -9q-137 -113 -261 -242t-202 -288 l-196 -387h-238z" />
<glyph unicode="&#xdf;" horiz-adv-x="1064" d="M-35 -121l95 292l96 292h-131l65 203h131l21 64l20 65l21 62l20 65q37 117 148.5 203.5t236.5 91.5h4h4q23 0 46.5 -3.5t45.5 -11.5q80 -27 126.5 -93.5t46.5 -150.5q0 -100 -57.5 -185t-139.5 -140q57 -59 94 -135t43 -156v-9v-11q0 -29 -5 -56.5t-15 -56.5h209 l-66 -205h-662l68 205h137q55 0 93 28.5t38 88.5q0 66 -37.5 114.5t-85.5 89.5q-10 12 -22 22.5l-23 20.5l-23 24q-11 11 -24 21l-23 24q-11 11 -24 22l49 31l50 32l50 31.5l50 32.5q6 4 13 8t14 10q35 27 65.5 65.5t30.5 83.5q0 29 -16.5 41.5t-43.5 12.5q-6 0 -13 -1 t-13 -1q-57 -10 -107.5 -54.5t-66.5 -95.5l-320 -981h-213z" />
<glyph unicode="&#xe0;" horiz-adv-x="751" d="M4 215q0 53 20.5 103.5t53.5 93.5q102 137 254.5 193.5t316.5 60.5h14h15v-203q-66 0 -130.5 -8.5t-123.5 -30.5q-53 -18 -100.5 -51t-81.5 -80q-2 -4 -6.5 -10.5t-8.5 -14.5q-4 -6 -7 -12l-7 -14q-2 -6 -4 -14.5t-2 -14.5q0 -8 6 -15.5t20 -7.5q80 0 119 53.5t62 116.5 l8 27l8 25l193 -64l-45 -141h219l-66 -203h-199q-33 0 -59.5 10.5t-48.5 26.5q-31 -18 -66.5 -30.5t-70.5 -16.5q-12 -2 -24.5 -3t-24.5 -1q-63 0 -120 28.5t-89 92.5q-12 27 -18.5 52t-6.5 52zM162 877l51 149l449 -152l-52 -149z" />
<glyph unicode="&#xe1;" horiz-adv-x="751" d="M4 215q0 53 20.5 103.5t53.5 93.5q102 137 254.5 193.5t316.5 60.5h14h15v-203q-66 0 -130.5 -8.5t-123.5 -30.5q-53 -18 -100.5 -51t-81.5 -80q-2 -4 -6.5 -10.5t-8.5 -14.5q-4 -6 -7 -12l-7 -14q-2 -6 -4 -14.5t-2 -14.5q0 -8 6 -15.5t20 -7.5q80 0 119 53.5t62 116.5 l8 27l8 25l193 -64l-45 -141h219l-66 -203h-199q-33 0 -59.5 10.5t-48.5 26.5q-31 -18 -66.5 -30.5t-70.5 -16.5q-12 -2 -24.5 -3t-24.5 -1q-63 0 -120 28.5t-89 92.5q-12 27 -18.5 52t-6.5 52zM356 850l449 151l51 -149l-448 -152z" />
<glyph unicode="&#xe2;" horiz-adv-x="751" d="M4 215q0 53 20.5 103.5t53.5 93.5q102 137 254.5 193.5t316.5 60.5h14h15v-203q-66 0 -130.5 -8.5t-123.5 -30.5q-53 -18 -100.5 -51t-81.5 -80q-2 -4 -6.5 -10.5t-8.5 -14.5q-4 -6 -7 -12l-7 -14q-2 -6 -4 -14.5t-2 -14.5q0 -8 6 -15.5t20 -7.5q80 0 119 53.5t62 116.5 l8 27l8 25l193 -64l-45 -141h219l-66 -203h-199q-33 0 -59.5 10.5t-48.5 26.5q-31 -18 -66.5 -30.5t-70.5 -16.5q-12 -2 -24.5 -3t-24.5 -1q-63 0 -120 28.5t-89 92.5q-12 27 -18.5 52t-6.5 52zM199 819l313 174l311 -174l-78 -137l-233 131l-236 -131z" />
<glyph unicode="&#xe3;" horiz-adv-x="751" d="M4 215q0 53 20.5 103.5t53.5 93.5q102 137 254.5 193.5t316.5 60.5h14h15v-203q-66 0 -130.5 -8.5t-123.5 -30.5q-53 -18 -100.5 -51t-81.5 -80q-2 -4 -6.5 -10.5t-8.5 -14.5q-4 -6 -7 -12l-7 -14q-2 -6 -4 -14.5t-2 -14.5q0 -8 6 -15.5t20 -7.5q80 0 119 53.5t62 116.5 l8 27l8 25l193 -64l-45 -141h219l-66 -203h-199q-33 0 -59.5 10.5t-48.5 26.5q-31 -18 -66.5 -30.5t-70.5 -16.5q-12 -2 -24.5 -3t-24.5 -1q-63 0 -120 28.5t-89 92.5q-12 27 -18.5 52t-6.5 52zM190 778q37 63 98.5 97t131.5 34q33 0 64.5 -8t60.5 -24q12 -6 24.5 -9.5 t24.5 -3.5q29 0 53.5 13.5t38.5 40.5l137 -80q-37 -63 -98 -97t-131 -34q-33 0 -64.5 8t-60.5 24q-12 6 -24.5 9.5t-24.5 3.5q-27 0 -51.5 -13.5t-40.5 -38.5z" />
<glyph unicode="&#xe4;" horiz-adv-x="751" d="M4 215q0 53 20.5 103.5t53.5 93.5q102 137 254.5 193.5t316.5 60.5h14h15v-203q-66 0 -130.5 -8.5t-123.5 -30.5q-53 -18 -100.5 -51t-81.5 -80q-2 -4 -6.5 -10.5t-8.5 -14.5q-4 -6 -7 -12l-7 -14q-2 -6 -4 -14.5t-2 -14.5q0 -8 6 -15.5t20 -7.5q80 0 119 53.5t62 116.5 l8 27l8 25l193 -64l-45 -141h219l-66 -203h-199q-33 0 -59.5 10.5t-48.5 26.5q-31 -18 -66.5 -30.5t-70.5 -16.5q-12 -2 -24.5 -3t-24.5 -1q-63 0 -120 28.5t-89 92.5q-12 27 -18.5 52t-6.5 52zM260 780l117 187l133 -82l-117 -189zM545 780l114 187l136 -82l-115 -189z" />
<glyph unicode="&#xe5;" horiz-adv-x="751" d="M4 215q0 53 20.5 103.5t53.5 93.5q102 137 254.5 193.5t316.5 60.5h14h15v-203q-66 0 -130.5 -8.5t-123.5 -30.5q-53 -18 -100.5 -51t-81.5 -80q-2 -4 -6.5 -10.5t-8.5 -14.5q-4 -6 -7 -12l-7 -14q-2 -6 -4 -14.5t-2 -14.5q0 -8 6 -15.5t20 -7.5q80 0 119 53.5t62 116.5 l8 27l8 25l193 -64l-45 -141h219l-66 -203h-199q-33 0 -59.5 10.5t-48.5 26.5q-31 -18 -66.5 -30.5t-70.5 -16.5q-12 -2 -24.5 -3t-24.5 -1q-63 0 -120 28.5t-89 92.5q-12 27 -18.5 52t-6.5 52zM401 842q0 31 11.5 56.5t29.5 43.5v2q23 20 48.5 30.5t54.5 10.5q59 0 101 -42 t42 -101q0 -29 -11 -54.5t-32 -46.5q-18 -20 -45 -30.5t-55 -10.5q-57 0 -100.5 42.5t-43.5 99.5zM508 842q0 -14 11 -25.5t26 -11.5q8 0 15 3t11 7t7.5 11.5t3.5 15.5q0 16 -10.5 27.5t-26.5 11.5q-8 0 -15.5 -3.5t-11.5 -7.5q-6 -4 -8 -11t-2 -17z" />
<glyph unicode="&#xe6;" horiz-adv-x="1251" d="M14 215q0 53 19.5 103.5t52.5 93.5q102 141 260 196.5t326 57.5h7h7v-146q41 53 87 90t95 58q23 10 47.5 17t47.5 11q12 2 24 3t27 1q84 0 148.5 -48t64.5 -132q0 -16 -3 -34.5t-12 -39.5q-16 -49 -66 -110.5t-145 -128.5h261l-68 -203h-653q-33 0 -59.5 10.5t-49.5 26.5 q-31 -18 -66.5 -30.5t-70.5 -16.5q-12 -2 -24.5 -3t-24.5 -1q-63 0 -119.5 28.5t-89.5 92.5q-12 27 -17.5 52t-5.5 52zM217 213q0 -8 6 -15.5t21 -7.5q80 0 117.5 53.5t60.5 116.5l8 27l8 25l162 -54q2 4 4 9.5t4 9.5q0 4 2 9t4 9l17 34q8 17 16 32q-55 -2 -109.5 -11.5 t-105.5 -25.5q-53 -18 -100 -51t-82 -80q-2 -4 -6 -10l-8 -13q-4 -6 -7.5 -13t-5.5 -15q-4 -6 -5 -14.5t-1 -14.5zM803 317q94 57 145 103.5t68 79.5q-74 -2 -129.5 -56.5t-81.5 -119.5q0 -2 -1 -3.5t-1 -3.5z" />
<glyph unicode="&#xe7;" horiz-adv-x="700" d="M10 209q0 51 15.5 100t35.5 92q0 2 1 3.5t1 3.5q55 106 167 194t237 88h7h7q2 -2 6 -2h9q78 -8 127 -57t49 -125v-6v-6q0 -4 -1 -7.5t-1 -7.5l-11 -90h-204l10 98q-59 -4 -112.5 -47t-86.5 -94l-11 -18q-5 -8 -9 -17q0 -2 -5 -13t-12 -28q-2 -2 -3 -5t-3 -5l-8 -28 q-4 -13 -4 -19q0 -2 1 -4t3 -2h522l-67 -203h-455q-57 0 -106.5 25.5t-75.5 76.5q-12 25 -17.5 50.5t-5.5 52.5zM113 -412l61 150h135q35 2 48.5 13t11.5 26q0 4 -1 7t-1 7q-4 10 -12.5 20.5t-18.5 16.5l-54 33l-55 33q29 51 60 100l61 100l133 -82l-39 -69q39 -29 60.5 -72 t21.5 -90q0 -20 -4 -40t-12 -38v-2q-25 -51 -72 -82t-100 -31h-47h-66h-21h-20h-40h-29z" />
<glyph unicode="&#xe8;" horiz-adv-x="700" d="M4 203q0 6 1 13t1 15q4 41 17.5 83t27.5 77q43 98 105.5 162.5t130.5 97.5q29 16 56.5 25.5t53.5 13.5q12 2 24.5 3t27.5 1q84 0 149.5 -47t65.5 -131q0 -16 -3.5 -33.5t-11.5 -38.5q-16 -51 -67.5 -111.5t-143.5 -125.5h283l-68 -203h-446q-55 0 -103.5 23.5t-74.5 72.5 q-12 23 -18.5 49.5t-6.5 53.5zM117 885l51 149l448 -151l-51 -150zM240 315q94 55 144 101.5t69 79.5q-74 -4 -129.5 -57.5t-81.5 -116.5q0 -2 -1 -3.5t-1 -3.5z" />
<glyph unicode="&#xe9;" horiz-adv-x="700" d="M4 203q0 6 1 13t1 15q4 41 17.5 83t27.5 77q43 98 105.5 162.5t130.5 97.5q29 16 56.5 25.5t53.5 13.5q12 2 24.5 3t27.5 1q84 0 149.5 -47t65.5 -131q0 -16 -3.5 -33.5t-11.5 -38.5q-16 -51 -67.5 -111.5t-143.5 -125.5h283l-68 -203h-446q-55 0 -103.5 23.5t-74.5 72.5 q-12 23 -18.5 49.5t-6.5 53.5zM240 315q94 55 144 101.5t69 79.5q-74 -4 -129.5 -57.5t-81.5 -116.5q0 -2 -1 -3.5t-1 -3.5zM311 887l449 151l51 -149l-449 -152z" />
<glyph unicode="&#xea;" horiz-adv-x="700" d="M4 203q0 6 1 13t1 15q4 41 17.5 83t27.5 77q43 98 105.5 162.5t130.5 97.5q29 16 56.5 25.5t53.5 13.5q12 2 24.5 3t27.5 1q84 0 149.5 -47t65.5 -131q0 -16 -3.5 -33.5t-11.5 -38.5q-16 -51 -67.5 -111.5t-143.5 -125.5h283l-68 -203h-446q-55 0 -103.5 23.5t-74.5 72.5 q-12 23 -18.5 49.5t-6.5 53.5zM129 807l313 174l312 -174l-78 -137l-234 131l-235 -131zM240 315q94 55 144 101.5t69 79.5q-74 -4 -129.5 -57.5t-81.5 -116.5q0 -2 -1 -3.5t-1 -3.5z" />
<glyph unicode="&#xeb;" horiz-adv-x="700" d="M4 203q0 6 1 13t1 15q4 41 17.5 83t27.5 77q43 98 105.5 162.5t130.5 97.5q29 16 56.5 25.5t53.5 13.5q12 2 24.5 3t27.5 1q84 0 149.5 -47t65.5 -131q0 -16 -3.5 -33.5t-11.5 -38.5q-16 -51 -67.5 -111.5t-143.5 -125.5h283l-68 -203h-446q-55 0 -103.5 23.5t-74.5 72.5 q-12 23 -18.5 49.5t-6.5 53.5zM170 788l117 187l133 -82l-117 -188zM240 315q94 55 144 101.5t69 79.5q-74 -4 -129.5 -57.5t-81.5 -116.5q0 -2 -1 -3.5t-1 -3.5zM455 788l114 187l136 -82l-115 -188z" />
<glyph unicode="&#xec;" horiz-adv-x="405" d="M-137 864l51 150l448 -152l-51 -149zM6 172q0 8 1 15.5t1 15.5q2 6 4 13t4 15l140 437h215l-148 -461h203l-66 -203h-184q-76 0 -123 50t-47 118z" />
<glyph unicode="&#xed;" horiz-adv-x="405" d="M6 172q0 8 1 15.5t1 15.5q2 6 4 13t4 15l140 437h215l-148 -461h203l-66 -203h-184q-76 0 -123 50t-47 118zM188 854l449 152l51 -150l-448 -151z" />
<glyph unicode="&#xee;" horiz-adv-x="405" d="M-43 795l313 174l312 -174l-78 -138l-234 131l-235 -131zM6 172q0 8 1 15.5t1 15.5q2 6 4 13t4 15l140 437h215l-148 -461h203l-66 -203h-184q-76 0 -123 50t-47 118z" />
<glyph unicode="&#xef;" horiz-adv-x="405" d="M6 172q0 8 1 15.5t1 15.5q2 6 4 13t4 15l140 437h215l-148 -461h203l-66 -203h-184q-76 0 -123 50t-47 118zM23 793l116 186l133 -82l-116 -188zM307 793l115 186l135 -82l-115 -188z" />
<glyph unicode="&#xf0;" horiz-adv-x="952" d="M6 233q0 35 9.5 71t27.5 75q63 123 189 190.5t264 87.5q31 4 61.5 6.5t58.5 2.5q23 0 42.5 -1t39.5 -3q8 37 12.5 74.5t4.5 76.5v22q0 11 -2 21l-185 -94l-71 139l194 100q-12 8 -27.5 11.5t-31.5 3.5q-8 0 -15.5 -1t-13.5 -1q-33 -6 -62.5 -19.5t-47.5 -29.5l-127 159 q45 35 98 58.5t111 31.5q14 2 27 3.5t28 1.5q72 0 137.5 -29t110.5 -92l118 59l72 -137l-127 -68q10 -33 13.5 -68.5t3.5 -72.5q0 -16 -1.5 -33.5t-3.5 -34.5l-4 -35l-4 -34q-6 -49 -20.5 -103.5t-30.5 -107.5q-10 -27 -19 -54l-18 -55q-14 -37 -26 -73l-25 -72h205 l-66 -205h-184q-51 0 -90 25.5t-60 64.5q-63 -41 -137 -65.5t-158 -24.5q-125 -2 -197.5 63.5t-72.5 165.5zM211 240q0 -16 16.5 -24.5t48.5 -8.5q121 2 210 78.5t143 177.5q-33 0 -70 -3t-74 -9q-80 -16 -152.5 -55.5t-107.5 -108.5q-8 -14 -11 -25.5t-3 -21.5z" />
<glyph unicode="&#xf1;" horiz-adv-x="827" d="M0 4l215 664h213l-14 -43q23 12 46 21t48 13q12 4 23.5 5.5t23.5 1.5q16 0 33.5 -3.5t32.5 -9.5q59 -20 85.5 -71.5t26.5 -110.5q0 -31 -7 -66.5t-21 -76.5q-6 -14 -11 -30l-8 -30q-2 -6 -4 -11t-2 -9q-4 -10 -6 -20.5t-6 -20.5h163l-67 -203h-141q-76 0 -123 49t-47 119 q0 14 3 29.5t7 29.5l8 28l8 26l17 53l16 53q2 4 3 8t1 9q4 10 7 22t5 25q-16 -6 -38.5 -20.5t-45.5 -35.5q-57 -49 -107 -116.5t-79 -139.5l-45 -139h-213zM211 782q37 63 98.5 97t130.5 34q33 0 65 -8t60 -24q12 -6 24.5 -9.5t24.5 -3.5q29 0 53.5 13.5t39.5 40.5l137 -80 q-37 -63 -98.5 -97t-131.5 -34q-33 0 -64.5 8t-60.5 24q-12 6 -24 9.5t-25 3.5q-27 0 -51 -13.5t-41 -37.5z" />
<glyph unicode="&#xf2;" horiz-adv-x="718" d="M6 307q0 145 106.5 259t256.5 114q90 0 160.5 -47t105.5 -125h184l-67 -209h-99q-27 -119 -126 -207t-226 -88h-11q-5 0 -11 2q-6 0 -11.5 1t-11.5 1q-113 16 -181.5 101t-68.5 198zM113 856l51 150l448 -152l-51 -149zM213 307q2 -37 23.5 -65.5t64.5 -28.5 q41 0 77 26.5t56 63.5q-53 10 -91 51t-44 99q-33 -20 -55.5 -54t-28.5 -71v-5v-6q-2 -2 -2 -5v-5z" />
<glyph unicode="&#xf3;" horiz-adv-x="718" d="M6 307q0 145 106.5 259t256.5 114q90 0 160.5 -47t105.5 -125h184l-67 -209h-99q-27 -119 -126 -207t-226 -88h-11q-5 0 -11 2q-6 0 -11.5 1t-11.5 1q-113 16 -181.5 101t-68.5 198zM213 307q2 -37 23.5 -65.5t64.5 -28.5q41 0 77 26.5t56 63.5q-53 10 -91 51t-44 99 q-33 -20 -55.5 -54t-28.5 -71v-5v-6q-2 -2 -2 -5v-5zM328 879l448 151l51 -149l-448 -152z" />
<glyph unicode="&#xf4;" horiz-adv-x="718" d="M6 307q0 145 106.5 259t256.5 114q90 0 160.5 -47t105.5 -125h184l-67 -209h-99q-27 -119 -126 -207t-226 -88h-11q-5 0 -11 2q-6 0 -11.5 1t-11.5 1q-113 16 -181.5 101t-68.5 198zM47 799l313 174l312 -174l-78 -137l-234 131l-235 -131zM213 307q2 -37 23.5 -65.5 t64.5 -28.5q41 0 77 26.5t56 63.5q-53 10 -91 51t-44 99q-33 -20 -55.5 -54t-28.5 -71v-5v-6q-2 -2 -2 -5v-5z" />
<glyph unicode="&#xf5;" horiz-adv-x="718" d="M6 307q0 145 106.5 259t256.5 114q90 0 160.5 -47t105.5 -125h184l-67 -209h-99q-27 -119 -126 -207t-226 -88h-11q-5 0 -11 2q-6 0 -11.5 1t-11.5 1q-113 16 -181.5 101t-68.5 198zM88 786q37 63 98.5 97.5t130.5 34.5q33 0 65 -8.5t60 -24.5q12 -6 24.5 -9.5t25.5 -3.5 q29 0 53 13.5t39 40.5l137 -80q-37 -63 -98.5 -97t-130.5 -34q-33 0 -65 8t-60 25q-12 6 -24.5 9t-25.5 3q-27 0 -51 -13.5t-41 -37.5zM213 307q2 -37 23.5 -65.5t64.5 -28.5q41 0 77 26.5t56 63.5q-53 10 -91 51t-44 99q-33 -20 -55.5 -54t-28.5 -71v-5v-6q-2 -2 -2 -5v-5z " />
<glyph unicode="&#xf6;" horiz-adv-x="718" d="M6 307q0 145 106.5 259t256.5 114q90 0 160.5 -47t105.5 -125h184l-67 -209h-99q-27 -119 -126 -207t-226 -88h-11q-5 0 -11 2q-6 0 -11.5 1t-11.5 1q-113 16 -181.5 101t-68.5 198zM104 776l117 187l133 -82l-116 -189zM213 307q2 -37 23.5 -65.5t64.5 -28.5 q41 0 77 26.5t56 63.5q-53 10 -91 51t-44 99q-33 -20 -55.5 -54t-28.5 -71v-5v-6q-2 -2 -2 -5v-5zM389 776l115 187l135 -82l-115 -189z" />
<glyph unicode="&#xf7;" />
<glyph unicode="&#xf8;" horiz-adv-x="704" d="M0 -125l119 191q-53 41 -84 104t-31 137q0 145 107.5 259t255.5 114q35 0 65.5 -6t56.5 -19l91 144h114l-125 -199q20 -20 37 -42.5t27 -49.5h184l-65 -209h-101q-27 -119 -126 -207t-226 -88q-10 0 -21.5 1t-21.5 3q-4 0 -8 1t-8 1q-8 2 -16.5 5t-16.5 5l-92 -145h-115z M213 303q0 -16 5 -31.5t13 -25.5l88 139q-8 16 -13 32.5t-7 35.5q-33 -20 -56.5 -54t-27.5 -71q-2 -6 -2 -13v-12zM328 215q35 10 62.5 33.5t43.5 54.5q-10 4 -20.5 7t-20.5 7z" />
<glyph unicode="&#xf9;" horiz-adv-x="692" d="M10 229q0 10 1 20.5t3 20.5q0 10 3 20.5l6 20.5l114 357h213l-135 -420q-2 -6 -3 -12.5t-1 -10.5q0 -8 5 -13t20 -5q6 0 12 1t12 3q35 8 65.5 35.5t41.5 58.5q0 2 1 3t1 3l116 357h211l-133 -420q-2 -6 -3 -12.5t-1 -10.5q0 -8 5 -13t20 -5h129l-68 -203h-30h-31 q-45 0 -87 16.5t-75 45.5q-41 -29 -89 -45.5t-97 -16.5q-10 0 -19.5 1t-19.5 3q-10 0 -19.5 3t-19.5 5q-74 25 -112 84t-36 129zM141 860l52 150l448 -152l-51 -149z" />
<glyph unicode="&#xfa;" horiz-adv-x="692" d="M10 229q0 10 1 20.5t3 20.5q0 10 3 20.5l6 20.5l114 357h213l-135 -420q-2 -6 -3 -12.5t-1 -10.5q0 -8 5 -13t20 -5q6 0 12 1t12 3q35 8 65.5 35.5t41.5 58.5q0 2 1 3t1 3l116 357h211l-133 -420q-2 -6 -3 -12.5t-1 -10.5q0 -8 5 -13t20 -5h129l-68 -203h-30h-31 q-45 0 -87 16.5t-75 45.5q-41 -29 -89 -45.5t-97 -16.5q-10 0 -19.5 1t-19.5 3q-10 0 -19.5 3t-19.5 5q-74 25 -112 84t-36 129zM360 874l449 152l51 -149l-448 -152z" />
<glyph unicode="&#xfb;" horiz-adv-x="692" d="M10 229q0 10 1 20.5t3 20.5q0 10 3 20.5l6 20.5l114 357h213l-135 -420q-2 -6 -3 -12.5t-1 -10.5q0 -8 5 -13t20 -5q6 0 12 1t12 3q35 8 65.5 35.5t41.5 58.5q0 2 1 3t1 3l116 357h211l-133 -420q-2 -6 -3 -12.5t-1 -10.5q0 -8 5 -13t20 -5h129l-68 -203h-30h-31 q-45 0 -87 16.5t-75 45.5q-41 -29 -89 -45.5t-97 -16.5q-10 0 -19.5 1t-19.5 3q-10 0 -19.5 3t-19.5 5q-74 25 -112 84t-36 129zM113 831l313 175l311 -175l-78 -137l-233 131l-236 -131z" />
<glyph unicode="&#xfc;" horiz-adv-x="692" d="M10 229q0 10 1 20.5t3 20.5q0 10 3 20.5l6 20.5l114 357h213l-135 -420q-2 -6 -3 -12.5t-1 -10.5q0 -8 5 -13t20 -5q6 0 12 1t12 3q35 8 65.5 35.5t41.5 58.5q0 2 1 3t1 3l116 357h211l-133 -420q-2 -6 -3 -12.5t-1 -10.5q0 -8 5 -13t20 -5h129l-68 -203h-30h-31 q-45 0 -87 16.5t-75 45.5q-41 -29 -89 -45.5t-97 -16.5q-10 0 -19.5 1t-19.5 3q-10 0 -19.5 3t-19.5 5q-74 25 -112 84t-36 129zM186 776l117 187l133 -82l-117 -189zM471 776l115 187l135 -82l-115 -189z" />
<glyph unicode="&#xfd;" horiz-adv-x="563" />
<glyph unicode="&#xfe;" horiz-adv-x="950" d="M-119 -387l133 412l90 275l91 273q18 63 29.5 117.5t13.5 108.5v13v13q0 47 -6.5 94.5t-16.5 98.5l199 43q12 -53 18 -101.5t8 -95.5v-17v-20q0 -57 -8 -116.5t-24 -124.5q53 35 109 57.5t118 22.5q23 0 45 -3.5t45 -11.5q82 -27 129 -94.5t47 -150.5q0 -53 -16.5 -103.5 t-44.5 -93.5h133l-66 -205h-575l65 205h84q14 0 27.5 2t28.5 8q61 20 111 72.5t50 114.5q0 31 -20.5 44t-48.5 13q-45 0 -101.5 -39t-115.5 -107q-59 -70 -114.5 -160.5t-90.5 -195.5l-113 -348h-213z" />
<glyph unicode="&#xff;" horiz-adv-x="665" d="M2 229q0 20 4 42t10 42l59 177q30 89 56 178h213l-66 -209l-69 -209q0 -2 -1 -4t-1 -4q0 -4 -1 -8.5t-1 -8.5q0 -8 4 -12t14 -4q25 0 51.5 20.5t55.5 55.5q31 41 60.5 93t55.5 107l48 96q23 46 38 85v2h224q-8 -20 -19 -42l-20 -42l-48 -107q-28 -59 -61 -119 q-8 -18 -18 -35l-21 -34q0 -55 -2 -111.5t-8 -114.5q-27 -223 -135.5 -418.5t-347.5 -256.5l-49 194q158 41 230.5 175t94.5 286q-31 -18 -62.5 -27.5t-66.5 -9.5q-100 0 -160.5 66.5t-60.5 156.5zM203 772l116 186l134 -81l-117 -189zM487 772l115 186l135 -81l-114 -189z " />
<glyph unicode="&#x152;" horiz-adv-x="1767" d="M4 516v8v8q4 143 72.5 278.5t175.5 231.5q84 74 187.5 118t209.5 52q10 2 23 2h22q109 0 210.5 -43t176.5 -139q2 0 2 -1v-3q68 74 164 130t199 83q41 10 81 16.5t79 6.5q53 0 101 -12.5t87 -37.5q33 -20 55.5 -47.5t34.5 -62.5q6 -18 9 -35.5t3 -34.5q0 -90 -68.5 -168 t-150.5 -141q-43 -33 -85 -61l-72 -52l-121 160q6 4 50 36t95 73l20 15l17 13q45 37 78 71t33 52q0 4 -1 7t-5 5q-16 10 -36 15.5t-42 5.5q-14 0 -29.5 -2t-32.5 -6q-31 -6 -61.5 -16.5l-57.5 -20.5l-23 -12q-11 -6 -22 -11q-90 -45 -134 -82.5t-54 -72.5q-4 -8 -5 -16.5 t-1 -16.5q0 -55 47 -121.5t104 -165.5l-69 -52l-70 -52l-139 -104l-139 -105h845l-67 -205h-390h-392q-51 0 -94.5 14.5t-71.5 36.5q-57 -25 -120 -37t-126 -12q-109 0 -210 44t-179 138q-57 74 -85 158t-28 170zM207 514q2 -51 17.5 -102.5t51.5 -96.5q47 -57 108.5 -82.5 t125.5 -23.5h16q8 0 19 2q41 4 83 16.5t79 30.5q14 31 37.5 59.5t56.5 55.5l61 45l62 45q31 53 49 114.5t18 124.5q0 55 -16.5 106.5t-50.5 96.5q-45 57 -104.5 82t-125.5 25h-18q-10 0 -19 -2q-74 -6 -144.5 -39t-125.5 -80q-68 -59 -118 -149.5t-60 -188.5q0 -8 -1 -18.5 t-1 -20.5z" />
<glyph unicode="&#x153;" horiz-adv-x="1110" d="M6 313q0 147 109.5 264t261.5 117q72 0 133 -30.5t100 -81.5q27 25 54.5 45t56.5 35q29 12 56.5 21t53.5 13q14 4 28 4h26q84 0 148.5 -48t62.5 -132q0 -16 -3 -34.5t-10 -39.5q-16 -49 -67 -109.5t-144 -129.5h258l-65 -203h-424q-41 0 -80 14.5t-67 40.5 q-41 -27 -88.5 -41t-96.5 -14h-12q-6 0 -10 2q-6 0 -12.5 1t-12.5 1q-115 16 -185.5 104t-70.5 201zM219 311q0 -37 22.5 -65.5t65.5 -28.5t80 26.5t57 65.5q-55 12 -94 54.5t-45 99.5q-33 -20 -56.5 -55t-27.5 -74q0 -2 -1 -5t-1 -5v-7v-6zM672 317q96 57 146 103.5 t69 79.5q-74 -2 -129.5 -56.5t-83.5 -119.5q0 -2 -1 -3.5t-1 -3.5z" />
<glyph unicode="&#x178;" horiz-adv-x="929" d="M12 293q0 33 3 67.5t10 67.5q8 55 20 109l25 102l22 74l19 61q4 8 12 37l18 66q2 6 4 13t5 15q10 39 17 73t7 50v5q0 1 -2 3q-8 4 -45 4t-96 -4l-11 203q90 6 159 1t120 -46q41 -33 56.5 -78t15.5 -98q0 -23 -2 -46.5t-7 -45.5q-6 -33 -15 -67l-17 -64l-13 -40l-12 -38 q-4 -12 -16 -55l-29 -101q-6 -23 -11 -47.5t-11 -48.5q-10 -45 -16.5 -88t-6.5 -78q0 -39 10.5 -64.5t36.5 -25.5q125 0 231.5 149.5t194.5 350.5q10 23 18 49l15 57q6 23 11 46.5t11 47.5q4 6 7 15l4 16q20 70 43 138l47 139h317l-110 -216l-105 -219q-4 -10 -9 -20 t-11 -19l-4 -8l-4 -8l-19.5 -40.5t-17.5 -43.5l-70.5 -241t-118.5 -369l-28 -82q-14 -41 -31 -80q-45 -113 -92 -214t-97 -175q-10 -16 -22 -32.5t-25 -31.5l-151 131q31 37 63.5 97.5t67.5 136.5l33 79l32 83l27.5 67.5t24.5 69.5q-51 -37 -108.5 -56.5t-123.5 -19.5 q-145 0 -197.5 84t-52.5 203zM358 1292l117 187l133 -82l-116 -189zM643 1292l115 187l135 -82l-115 -189z" />
<glyph unicode="&#x2c6;" horiz-adv-x="698" d="M31 1065q37 63 98 97t131 34q33 0 64.5 -8t60.5 -25q12 -6 24.5 -9t24.5 -3q29 0 53.5 13.5t38.5 39.5l138 -80q-37 -63 -98.5 -97t-131.5 -34q-33 0 -64.5 8.5t-60.5 24.5q-12 6 -24.5 9t-24.5 3q-27 0 -51.5 -13t-40.5 -38z" />
<glyph unicode="&#x2dc;" horiz-adv-x="698" d="M43 1135l313 174l312 -174l-78 -138l-234 131l-235 -131z" />
<glyph unicode="&#x2000;" horiz-adv-x="796" />
<glyph unicode="&#x2001;" horiz-adv-x="1595" />
<glyph unicode="&#x2002;" horiz-adv-x="796" />
<glyph unicode="&#x2003;" horiz-adv-x="1595" />
<glyph unicode="&#x2004;" horiz-adv-x="530" />
<glyph unicode="&#x2005;" horiz-adv-x="397" />
<glyph unicode="&#x2006;" horiz-adv-x="264" />
<glyph unicode="&#x2007;" horiz-adv-x="264" />
<glyph unicode="&#x2008;" horiz-adv-x="198" />
<glyph unicode="&#x2009;" horiz-adv-x="317" />
<glyph unicode="&#x200a;" horiz-adv-x="88" />
<glyph unicode="&#x2010;" horiz-adv-x="454" d="M27 510l65 203h453l-68 -203h-450z" />
<glyph unicode="&#x2011;" horiz-adv-x="454" d="M27 510l65 203h453l-68 -203h-450z" />
<glyph unicode="&#x2012;" horiz-adv-x="454" d="M27 510l65 203h453l-68 -203h-450z" />
<glyph unicode="&#x2013;" horiz-adv-x="976" d="M4 510l66 203h903l-68 -203h-901z" />
<glyph unicode="&#x2014;" horiz-adv-x="1482" d="M-25 510l66 203h1456l-67 -203h-1455z" />
<glyph unicode="&#x2018;" horiz-adv-x="67" d="M18 1028l129 236h193l-127 -236h-195z" />
<glyph unicode="&#x2019;" horiz-adv-x="67" d="M18 1028l129 236h193l-127 -236h-195z" />
<glyph unicode="&#x201a;" horiz-adv-x="354" d="M-248 -57l129 235h193l-127 -235h-195z" />
<glyph unicode="&#x201c;" horiz-adv-x="260" d="M29 1028l129 236h192l-127 -236h-194zM274 1028l129 236h193l-127 -236h-195z" />
<glyph unicode="&#x201d;" horiz-adv-x="284" d="M29 1028l129 236h192l-127 -236h-194zM274 1028l129 236h193l-127 -236h-195z" />
<glyph unicode="&#x201e;" horiz-adv-x="624" d="M29 -57l129 235h192l-127 -235h-194zM274 -57l129 235h193l-127 -235h-195z" />
<glyph unicode="&#x2022;" horiz-adv-x="514" d="M45 537q0 92 66.5 158.5t158.5 66.5t159 -66.5t67 -158.5t-67 -158t-159 -66t-158.5 66t-66.5 158z" />
<glyph unicode="&#x2026;" />
<glyph unicode="&#x202f;" horiz-adv-x="317" />
<glyph unicode="&#x2039;" horiz-adv-x="468" d="M20 610l326 326l103 -105l-222 -221l222 -221l-103 -102z" />
<glyph unicode="&#x203a;" horiz-adv-x="468" d="M18 389l222 221l-222 221l103 105l325 -326l-325 -323z" />
<glyph unicode="&#x205f;" horiz-adv-x="397" />
<glyph unicode="&#x2122;" />
<glyph unicode="&#xe000;" horiz-adv-x="670" d="M0 670h670v-670h-670v670z" />
<glyph unicode="&#xfb01;" horiz-adv-x="1177" d="M778 172q0 8 1 15.5t1 15.5q2 6 4 13t4 15l140 437h215l-148 -461h203l-66 -203h-184q-76 0 -123 50t-47 118zM971 977q0 57 41 98t98 41q59 0 99 -41t40 -98t-40 -99t-99 -42q-57 0 -98 42t-41 99zM-27 -360q0 39 8.5 84t22.5 96l209 643h-178l82 205h162l192 596h215 l-192 -596h305l-66 -205h-119q53 -80 80 -175q25 -88 25 -183v-15v-24q0 -12 -2 -25q-10 -184 -102.5 -353t-249.5 -253q-33 -18 -69 -29.5t-73 -15.5q-8 -2 -15 -2h-15q-49 0 -93.5 19.5t-79.5 64.5v-4q-20 35 -33.5 77t-13.5 95zM172 -362q0 -20 8 -33t29 -13 q10 0 25.5 5.5t35.5 15.5q104 57 169 180t75 256q2 10 2 22v23q0 72 -17.5 138.5t-56.5 119.5q-8 12 -17 23.5t-19 19.5l-104 -318l-103 -319q-2 -4 -3 -7t-1 -7q-4 -8 -6.5 -17.5l-4.5 -17.5q-6 -18 -9 -36.5t-3 -34.5z" />
<glyph unicode="&#xfb02;" horiz-adv-x="1196" d="M799 172q0 8 1 15.5t1 15.5q2 6 4 13t4 15l336 1033h213l-344 -1057h202l-65 -203h-182q-76 0 -123 50t-47 118zM-27 -360q0 39 8.5 84t22.5 96l209 643h-178l82 205h162l192 596h215l-192 -596h305l-66 -205h-119q53 -80 80 -175q25 -88 25 -183v-15v-24q0 -12 -2 -25 q-10 -184 -102.5 -353t-249.5 -253q-33 -18 -69 -29.5t-73 -15.5q-8 -2 -15 -2h-15q-49 0 -93.5 19.5t-79.5 64.5v-4q-20 35 -33.5 77t-13.5 95zM172 -362q0 -20 8 -33t29 -13q10 0 25.5 5.5t35.5 15.5q104 57 169 180t75 256q2 10 2 22v23q0 72 -17.5 138.5t-56.5 119.5 q-8 12 -17 23.5t-19 19.5l-104 -318l-103 -319q-2 -4 -3 -7t-1 -7q-4 -8 -6.5 -17.5l-4.5 -17.5q-6 -18 -9 -36.5t-3 -34.5z" />
<glyph unicode="&#xfb03;" horiz-adv-x="1949" d="M1550 172q0 8 1 15.5t1 15.5q2 6 4 13t4 15l140 437h215l-148 -461h203l-66 -203h-184q-76 0 -123 50t-47 118zM1743 977q0 57 41 98t98 41q59 0 99 -41t40 -98t-40 -99t-99 -42q-57 0 -98 42t-41 99zM745 -360q0 39 8.5 84t22.5 96l209 643h-178l82 205h162l192 596h215 l-192 -596h305l-66 -205h-119q53 -80 80 -175q25 -88 25 -183v-15v-24q0 -12 -2 -25q-10 -184 -102.5 -353t-249.5 -253q-33 -18 -69 -29.5t-73 -15.5q-8 -2 -15 -2h-15q-49 0 -93.5 19.5t-79.5 64.5v-4q-20 35 -33.5 77t-13.5 95zM944 -362q0 -20 8 -33t29 -13 q10 0 25.5 5.5t35.5 15.5q104 57 169 180t75 256q2 10 2 22v23q0 72 -17.5 138.5t-56.5 119.5q-8 12 -17 23.5t-19 19.5l-104 -318l-103 -319q-2 -4 -3 -7t-1 -7q-4 -8 -6.5 -17.5l-4.5 -17.5q-6 -18 -9 -36.5t-3 -34.5zM-27 -360q0 39 8.5 84t22.5 96l209 643h-178l82 205 h162l192 596h215l-192 -596h305l-66 -205h-119q53 -80 80 -175q25 -88 25 -183v-15v-24q0 -12 -2 -25q-10 -184 -102.5 -353t-249.5 -253q-33 -18 -69 -29.5t-73 -15.5q-8 -2 -15 -2h-15q-49 0 -93.5 19.5t-79.5 64.5v-4q-20 35 -33.5 77t-13.5 95zM172 -362q0 -20 8 -33 t29 -13q10 0 25.5 5.5t35.5 15.5q104 57 169 180t75 256q2 10 2 22v23q0 72 -17.5 138.5t-56.5 119.5q-8 12 -17 23.5t-19 19.5l-104 -318l-103 -319q-2 -4 -3 -7t-1 -7q-4 -8 -6.5 -17.5l-4.5 -17.5q-6 -18 -9 -36.5t-3 -34.5z" />
<glyph unicode="&#xfb04;" horiz-adv-x="1968" d="M1571 172q0 8 1 15.5t1 15.5q2 6 4 13t4 15l336 1033h213l-344 -1057h202l-65 -203h-182q-76 0 -123 50t-47 118zM745 -360q0 39 8.5 84t22.5 96l209 643h-178l82 205h162l192 596h215l-192 -596h305l-66 -205h-119q53 -80 80 -175q25 -88 25 -183v-15v-24q0 -12 -2 -25 q-10 -184 -102.5 -353t-249.5 -253q-33 -18 -69 -29.5t-73 -15.5q-8 -2 -15 -2h-15q-49 0 -93.5 19.5t-79.5 64.5v-4q-20 35 -33.5 77t-13.5 95zM944 -362q0 -20 8 -33t29 -13q10 0 25.5 5.5t35.5 15.5q104 57 169 180t75 256q2 10 2 22v23q0 72 -17.5 138.5t-56.5 119.5 q-8 12 -17 23.5t-19 19.5l-104 -318l-103 -319q-2 -4 -3 -7t-1 -7q-4 -8 -6.5 -17.5l-4.5 -17.5q-6 -18 -9 -36.5t-3 -34.5zM-27 -360q0 39 8.5 84t22.5 96l209 643h-178l82 205h162l192 596h215l-192 -596h305l-66 -205h-119q53 -80 80 -175q25 -88 25 -183v-15v-24 q0 -12 -2 -25q-10 -184 -102.5 -353t-249.5 -253q-33 -18 -69 -29.5t-73 -15.5q-8 -2 -15 -2h-15q-49 0 -93.5 19.5t-79.5 64.5v-4q-20 35 -33.5 77t-13.5 95zM172 -362q0 -20 8 -33t29 -13q10 0 25.5 5.5t35.5 15.5q104 57 169 180t75 256q2 10 2 22v23q0 72 -17.5 138.5 t-56.5 119.5q-8 12 -17 23.5t-19 19.5l-104 -318l-103 -319q-2 -4 -3 -7t-1 -7q-4 -8 -6.5 -17.5l-4.5 -17.5q-6 -18 -9 -36.5t-3 -34.5z" />
</font>
</defs>
</svg>
